<?xml version="1.0" standalone="no"?>
<!DOCTYPE svg PUBLIC "-//W3C//DTD SVG 1.1//EN" "http://www.w3.org/Graphics/SVG/1.1/DTD/svg11.dtd" >
<!--
2016-2-19: Created.
-->
<svg xmlns="http://www.w3.org/2000/svg">
<metadata>
Created by FontForge 20120731 at Fri Feb 19 14:49:33 2016
 By root
Created by root with FontForge 2.0 (http://fontforge.sf.net)
</metadata>
<defs>
<font id="Flaticon" horiz-adv-x="512" >
  <font-face 
    font-family="Flaticon"
    font-weight="500"
    font-stretch="normal"
    units-per-em="512"
    panose-1="2 0 6 3 0 0 0 0 0 0"
    ascent="448"
    descent="-64"
    bbox="-0.000976562 -64.001 512.002 448"
    underline-thickness="25.6"
    underline-position="-51.2"
    unicode-range="U+0020-F15F"
  />
    <missing-glyph />
    <glyph glyph-name="space" unicode=" " horiz-adv-x="200" 
 />
    <glyph glyph-name="uniF108" unicode="&#xf108;" 
d="M505.373 210.363c8.72754 -11.7705 8.72754 -26.6426 0.631836 -37.7822c-59.4873 -65.7461 -123.396 -106.056 -194.081 -124.028c-11.8291 -3.10059 -24.2314 -4.30566 -35.3711 -5.56934c-6.20117 -0.631836 -12.4033 -0.631836 -18.6045 -0.631836v0
c-26.0117 0 -51.4502 4.30762 -76.2549 11.7715c-16.7676 4.93848 -33.4766 12.4023 -50.2432 21.0732c-45.8799 24.1738 -86.1885 55.1807 -120.295 93.0205c-14.8721 16.1348 -14.8721 31.6387 0 47.1426c43.9834 47.7168 91.7568 82.4561 144.47 104.792
c68.8467 29.7441 139.531 28.5391 209.011 -3.10059c49.6113 -22.9688 95.4902 -56.4453 135.8 -100.486c1.20508 -1.83691 3.10059 -4.36328 4.9375 -6.20117zM487.4 188.027c2.46875 2.46973 1.89551 5.57031 -0.632812 8.72754
c-1.2627 1.26367 -2.46875 3.10059 -3.73145 4.36426c-38.415 41.5156 -81.8252 73.7861 -128.968 95.4902c-32.8438 15.5039 -65.7461 22.9688 -98.5908 22.9688c-30.375 0 -61.3818 -6.83301 -91.7578 -19.8682c-49.6113 -21.0732 -94.2842 -53.9756 -136.432 -99.2227
c-6.83203 -6.83301 -6.83203 -8.6709 0 -16.1357c32.2129 -35.9443 70.6855 -65.6885 114.096 -88.6572c14.8721 -8.72754 30.375 -14.9297 45.8789 -19.8672c27.9062 -8.66992 57.0186 -11.7705 85.5566 -9.93359c9.93359 1.20605 21.7051 2.46973 32.2705 4.93848
c66.3203 16.709 125.866 55.1807 182.311 117.195zM254.215 277.316c48.4062 0 87.4521 -39.0459 86.8203 -86.8193c0 -47.7744 -39.0459 -86.8203 -86.8203 -86.8203s-86.8193 39.0459 -86.8193 86.8203s39.0449 86.8193 86.8193 86.8193zM254.215 126.014
c35.3711 0 64.541 29.1689 63.8516 63.9082c0 35.3135 -28.5381 63.8525 -63.8516 63.8525s-63.8516 -28.5957 -63.8516 -63.9092s28.4805 -63.8516 63.8516 -63.8516z" />
    <glyph glyph-name="uniF152" unicode="&#xf152;" 
d="M507.176 346.906c2.76562 -2.83105 4.11621 -6.30469 4.82422 -9.07129v-367.451c0 -18.7197 -15.2461 -34.0303 -34.0303 -34.0303h-63.2363h-308.461h-72.2422c-18.7207 0 -34.0303 15.2461 -34.0303 34.0303v443.231c0 18.7207 15.2461 34.0312 34.0303 34.0312
h113.22h216.148h37.5049c3.47363 0 6.94727 -1.41602 9.00586 -3.47461zM350.854 421.914h-36.1533v-114.636h35.4453s0.708008 0 0.708008 0.708008v113.928zM288.326 421.914h-127.889v-113.928s0 -0.708008 0.708008 -0.708008h127.181v114.636zM118.753 -38.043
v0.0644531h282.729v159.087c0 29.8496 -24.3164 54.166 -54.166 54.166h-174.397c-29.8496 0 -54.166 -24.3174 -54.166 -54.166v-159.151zM485.625 -29.6797v0l-0.128906 361.982l-89.6113 89.6113h-19.4268v-113.863c0 -14.5391 -11.7725 -26.375 -26.376 -26.375h-189
c-14.5391 0 -26.376 11.7715 -26.376 26.375v113.928h-100.74c-4.88867 0 -8.3623 -4.18164 -8.3623 -8.36328v-443.23c0 -4.88965 4.18164 -8.36328 8.3623 -8.36328h59.7627v159.087c0 43.7441 36.1533 79.8975 79.8975 79.8975h173.69
c43.7441 0 79.8975 -36.1533 79.8975 -79.8975v-159.151h50.0488c4.88867 0 8.3623 4.18164 8.3623 8.36328zM353.621 37.7373c0 -6.94727 -5.5332 -12.4795 -12.4805 -12.4795h-159.152c-6.94727 0 -12.4795 5.53223 -12.4795 12.4795s5.53223 12.4805 12.4795 12.4805
h158.38c7.65527 -0.000976562 13.2529 -5.5332 13.2529 -12.4805zM353.621 104.383c0 -6.94727 -5.5332 -12.4805 -12.4805 -12.4805h-159.152c-6.94727 0 -12.4795 5.53223 -12.4795 12.4805s5.53223 12.4805 12.4795 12.4805h158.38
c7.65527 0.771484 13.2529 -4.8252 13.2529 -12.4805z" />
    <glyph glyph-name="uniF158" unicode="&#xf158;" 
d="M500.22 237.832c6.20605 0 11.2061 -4.94238 11.7803 -11.7812v-243.155c0 -6.20605 -4.94238 -11.1484 -11.1494 -11.1484h-90.6299h-62.0674h-90.6299h-62.0684h-90.6299h-34.7695h-1.83887c-4.36816 0 -13.6787 1.20605 -21.7246 8.0459
c-7.41309 6.78125 -11.1484 16.7236 -11.1484 29.7695v17.3555h-24.1943c-6.20703 0 -11.1494 4.94238 -11.1494 11.1484c0 6.20703 4.94238 11.1494 11.1494 11.1494h24.1943v50.2861h-24.1943c-6.20703 0 -11.1494 4.94238 -11.1494 11.1494
c0 6.20605 4.94238 11.1484 11.1494 11.1484h24.1943v50.3438h-24.1943c-6.20703 0 -11.1494 4.94238 -11.1494 11.1494s4.94238 11.1494 11.1494 11.1494h24.1943v50.2861h-24.1943c-6.20703 0 -11.1494 4.94238 -11.1494 11.1494s4.94238 11.1494 11.1494 11.1494h24.1943
v50.2861h-24.1943c-6.20703 0 -11.1494 4.94238 -11.1494 11.1484c0 6.20801 4.94238 11.1504 11.1494 11.1504h24.1943v50.3438h-24.1943c-6.20703 0 -11.1494 4.94238 -11.1494 11.1484c0 6.20703 4.94238 11.1494 11.1494 11.1494h35.4014
c6.20605 0 11.1484 -4.94238 11.1484 -11.1494v-396.026c0 -4.36719 0.632812 -9.94238 3.73633 -12.4131c2.47168 -2.47168 6.83887 -2.47168 6.83887 -2.47168h1.26465h23.5625v175.629c0 6.20703 4.94238 11.1494 11.1494 11.1494h91.3203
c6.20605 0 11.1484 -4.94238 11.1484 -11.1494v-175.629h39.0801v363.729c0 6.20703 4.94238 11.1494 11.1484 11.1494h91.2627c6.20703 0 11.1494 -4.94238 11.1494 -11.1494v-363.096h39.0791v235.857c0 6.20605 4.94238 11.1484 11.1494 11.1484h90.6309z
M116.032 -9.80664v0.632812h67.6416v163.847h-67.6416v-164.479zM268.729 -9.80664v0.576172h67.6426v351.945h-67.6426v-352.521zM421.428 -9.80664h67.6416v224.708h-67.6416v-224.708z" />
    <glyph glyph-name="uniF10F" unicode="&#xf10f;" 
d="M512 351.634h-0.65625v-257.258c0 -0.658203 -0.65918 -1.91504 -0.65918 -2.57324v-35.5537c0 -17.418 -14.1855 -31.6641 -31.6631 -31.6641h-139.643v-48.4824c0 -6.46484 -5.14746 -11.6123 -11.6123 -11.6123h-143.532
c-6.46387 0 -11.6113 5.14746 -11.6113 11.6123v48.4824h-140.959c-17.418 0 -31.6641 14.1865 -31.6641 31.6641v331.597c0 17.418 14.1855 31.6631 31.6641 31.6641h448.014c17.418 0 31.6641 -14.1865 31.6641 -31.6641v-33.6387
c0.658203 -0.658203 0.658203 -1.91504 0.658203 -2.57324zM487.399 105.988h0.65918v234.033h-462.859v-234.033h462.2zM31.6641 395.566c-4.48926 0 -7.72266 -3.23145 -7.72266 -7.78125v-24.54h464.117v24.54c0 4.5498 -3.8916 7.78125 -7.78125 7.78125h-448.613z
M316.753 -11.6865h-0.658203v36.2119h-119.591v-36.2119h120.249zM480.277 48.4072c3.88965 0 7.12207 3.23242 7.12207 7.78125v25.8574h-463.517v-25.8574c0 -4.54883 3.89062 -7.78125 7.78125 -7.78125h153.229h143.472h151.913z" />
    <glyph glyph-name="uniF125" unicode="&#xf125;" 
d="M470.452 367.114c22.8975 0 41.4902 -18.5938 41.5479 -41.4902v-45.8516v-57.042v-164.297c0 -22.9541 -18.5928 -41.5479 -41.5479 -41.5479h-428.904c-22.9551 0 -41.5479 18.5938 -41.5479 41.5479v164.239v57.042v45.8516
c0 22.9541 18.5928 41.5479 41.5479 41.5479h428.904zM41.5479 344.217c-10.502 0 -18.5928 -8.72266 -18.5928 -18.5928v-34.7188h466.09v34.7188c0 10.5596 -8.66504 18.5928 -18.5928 18.5928h-428.904zM489.045 234.495v0v34.0879h-466.09v-34.0879h466.09z
M470.452 39.8984c10.502 0 18.5928 8.66504 18.5928 19.167v152.475h-466.09v-153.049c0 -10.5596 8.66504 -18.5928 18.5928 -18.5928h428.904zM435.733 150.194c0 -6.19727 -4.93555 -11.1328 -11.1338 -11.1328h-119.018c-6.19824 0 -11.1328 4.93555 -11.1328 11.1328
s4.93457 11.1328 11.1328 11.1328h118.388c6.19727 0.630859 11.7637 -4.30371 11.7637 -11.1328zM435.733 89.4795c0 -6.19727 -4.93555 -11.1328 -11.1338 -11.1328h-68.1738c-6.19824 0 -11.1328 4.93555 -11.1328 11.1328c0 6.19824 4.93457 11.1338 11.1328 11.1338
h68.1738c5.56738 0 11.1338 -4.93555 11.1338 -11.1338z" />
    <glyph glyph-name="uniF141" unicode="&#xf141;" 
d="M508.6 159.348c4.38086 -4.37988 4.38086 -11.8154 0 -16.1953c-2.47852 -2.47949 -4.95703 -3.11328 -8.06934 -3.11328c-3.11328 0 -5.59082 1.26758 -8.07031 3.11328l-39.1934 39.1934l-39.1943 -39.1934c-2.47852 -2.47949 -4.95703 -3.11328 -8.06934 -3.11328
c-3.11328 0 -5.59082 1.26758 -8.07031 3.11328c-4.37988 4.37988 -4.37988 11.8154 0 16.1953l39.1943 39.1943l-39.1943 39.1943c-4.37988 4.38086 -4.37988 11.8154 0 16.1963c4.38086 4.37988 11.8154 4.37988 16.1963 0l39.1943 -39.1943l39.1943 39.1943
c4.37988 4.37988 11.8154 4.37988 16.1953 0c4.38086 -4.38086 4.38086 -11.8154 0 -16.1963l-39.1934 -39.1943zM342.428 371.572v-334.878v-0.633789c-0.633789 -11.8154 -8.70312 -16.8301 -16.1953 -16.8301v0c-4.95703 0 -9.97168 2.47852 -16.1963 6.8584
l-97.1201 77.2354h-37.9844v-74.123c0 -21.1533 -16.8301 -37.9844 -37.9834 -37.9844h-33.6035c-21.1533 0 -37.9844 16.8301 -37.9844 37.9844v74.123h-28.0107c-20.5195 0 -37.3496 16.8301 -37.3496 37.3486v135.046c0 20.5195 16.8301 37.3496 37.3496 37.3496h176.199
l94.0078 75.333c0.633789 0.633789 1.26855 1.26758 1.84473 1.26758c0 0 6.22461 3.11328 13.084 3.11328c11.8164 0.000976562 19.9424 -8.76074 19.9424 -21.21zM37.4072 126.322h39.8271h86.5146h42.3076v163.692h-168.649
c-7.49316 0 -14.2949 -6.22461 -14.2949 -14.2949v-135.104c-0.0566406 -8.06934 6.16797 -14.2939 14.2949 -14.2939zM151.934 103.324h-63.5176v-74.123c0 -8.07031 6.85938 -14.9287 14.9287 -14.9287h33.6035c8.06934 0 14.9277 6.8584 14.9277 14.9287v74.123
h0.0576172zM319.373 368.459l-90.8945 -72.7969v-175.565l90.2607 -72.2207v320.583h0.633789z" />
    <glyph glyph-name="uniF131" unicode="&#xf131;" 
d="M484.139 249.873c14.8486 0 27.2314 -12.3828 27.8613 -27.2305v-53.8887c0 -14.8486 -12.3828 -27.2314 -27.2314 -27.2314h-26.0264v-48.2705c0 -16.6816 -13.5879 -29.6963 -29.6963 -29.6963h-399.35c-16.6826 0 -29.6963 13.5869 -29.6963 29.6963v197.496
c0 16.6826 13.5869 29.6963 29.6963 29.6963h398.72c16.6826 0 29.6953 -13.5869 29.6953 -29.6963v-40.875h26.0273zM435.237 93.1943v-0.0585938h0.630859v60.0801v83.5859v53.8887c0 3.72656 -3.0957 6.82227 -6.82227 6.82227h-399.35
c-3.72656 0 -6.82227 -3.0957 -6.82227 -6.82227v-197.496c0 -3.72656 3.0957 -6.82227 6.82227 -6.82227h398.719c3.72656 0 6.82227 3.0957 6.82227 6.82227zM488.495 168.753v53.832c0 2.52148 -1.8916 4.35645 -4.35645 4.35645h-26.0273v-62.5449h26.0273
c2.52148 0 4.35645 1.8916 4.35645 4.35645zM106.459 241.79v-99.6943c0 -6.19141 -4.93066 -11.1211 -11.1221 -11.1211s-11.1211 4.93066 -11.1211 11.1211v99.6943c0 6.19141 4.93066 11.1211 11.1211 11.1211c6.19238 0 11.1221 -4.2998 11.1221 -11.1211z
M196.235 241.79v-99.6943c0 -6.19141 -4.93066 -11.1211 -11.1211 -11.1211c-6.19238 0 -11.1221 4.93066 -11.1221 11.1211v99.6943c0 6.19141 4.93066 11.1211 11.1221 11.1211c5.56055 0.630859 11.1211 -4.2998 11.1211 -11.1211zM285.381 241.79v-99.6943
c0 -6.19141 -4.93066 -11.1211 -11.1211 -11.1211s-11.1211 4.93066 -11.1211 11.1211v99.6943c0 6.19141 4.92969 11.1211 11.1211 11.1211c6.19141 0.630859 11.1211 -4.2998 11.1211 -11.1211zM375.157 241.79v-99.6943c0 -6.19141 -4.93066 -11.1211 -11.1211 -11.1211
c-6.19141 0 -11.1211 4.93066 -11.1211 11.1211v99.6943c0 6.19141 4.92969 11.1211 11.1211 11.1211c6.19043 0.630859 11.1211 -4.2998 11.1211 -11.1211z" />
    <glyph glyph-name="uniF147" unicode="&#xf147;" 
d="M481.346 399.579c17.5146 0 31.2148 -13.7002 30.6377 -31.1572v-319.664v-35.6074c0 -15.6084 -13.1221 -28.7305 -28.7295 -28.7305h-209.834c-6.82129 0 -12.4863 2.48535 -17.458 6.24316c-4.9707 -3.75684 -10.5781 -6.24316 -17.457 -6.24316h-209.775
c-15.6074 0 -28.7295 13.1221 -28.7295 28.7305v33.7002v1.84961v319.664c0 17.457 13.7578 31.2148 31.2148 31.2148h450.131zM244.748 13.7861v0v23.6992h-220.989v-23.6992c0 -3.12109 2.48535 -5.60742 5.60645 -5.60742h209.776
c3.12109 0 5.60645 2.48535 5.60645 5.60742zM244.748 60.6084v0v315.849h-212.897c-4.33594 0 -8.09277 -3.7002 -8.09277 -8.09277v-307.756h220.99zM489.496 13.7861v23.6992h-220.99v-23.6992c0 -3.12109 2.48535 -5.60742 5.60742 -5.60742h209.776
c3.12012 0 5.60645 2.48535 5.60645 5.60742zM489.496 60.6084v0v307.813c0 4.33496 -3.69922 8.09277 -8.09277 8.09277h-213.533v-315.906h221.626zM445.795 251.02c0 -6.24316 -4.9707 -11.2148 -11.2139 -11.2148h-113.01c-6.24219 0 -11.2148 4.97168 -11.2148 11.2148
c0 6.24219 4.97168 11.2139 11.2148 11.2139h113.01c6.18555 0 11.2139 -4.97168 11.2139 -11.2139zM445.795 188.59c0 -6.24316 -4.9707 -11.2148 -11.2139 -11.2148h-113.01c-6.24219 0 -11.2148 4.9707 -11.2148 11.2148c0 6.24316 4.97168 11.2148 11.2148 11.2148
h113.01c6.18555 -0.000976562 11.2139 -4.97266 11.2139 -11.2148zM445.795 123.674c0 -6.24219 -4.9707 -11.2148 -11.2139 -11.2148h-113.01c-6.24219 0 -11.2148 4.97168 -11.2148 11.2148s4.97168 11.2148 11.2148 11.2148h113.01
c6.18555 -0.000976562 11.2139 -4.97168 11.2139 -11.2148zM445.795 314.663c0 -6.24316 -4.9707 -11.2139 -11.2139 -11.2139h-113.01c-6.24219 0 -11.2148 4.9707 -11.2148 11.2139c0 6.24219 4.97168 11.2148 11.2148 11.2148h113.01
c6.18555 0.693359 11.2139 -4.33594 11.2139 -11.2148zM65.5518 251.02c0 6.24219 4.9707 11.2139 11.2148 11.2139h113.01c6.24219 0 11.2139 -4.97168 11.2139 -11.2139c0 -6.24316 -4.9707 -11.2148 -11.2139 -11.2148h-112.953
c-6.24316 -0.635742 -11.2715 4.33594 -11.2715 11.2148zM65.5518 188.59c0 6.24219 4.9707 11.2148 11.2148 11.2148h113.01c6.24219 0 11.2139 -4.97168 11.2139 -11.2148c0 -6.24414 -4.9707 -11.2148 -11.2139 -11.2148h-112.953
c-6.24316 -0.635742 -11.2715 4.9707 -11.2715 11.2148zM65.5518 123.674c0 6.24316 4.9707 11.2148 11.2148 11.2148h113.01c6.24219 0 11.2139 -4.97168 11.2139 -11.2148c0 -6.24219 -4.9707 -11.2148 -11.2139 -11.2148h-112.953
c-6.24316 -0.693359 -11.2715 4.33594 -11.2715 11.2148zM65.5518 314.663c0 6.24219 4.9707 11.2148 11.2148 11.2148h113.01c6.24219 0 11.2139 -4.97168 11.2139 -11.2148s-4.9707 -11.2139 -11.2139 -11.2139h-112.953c-6.24316 0 -11.2715 4.9707 -11.2715 11.2139z
" />
    <glyph glyph-name="uniF139" unicode="&#xf139;" 
d="M344.385 239.183c0 -6.25293 -4.97949 -11.2314 -11.2314 -11.2314h-190.697c-6.25293 0 -11.2314 4.97949 -11.2314 11.2314s4.97852 11.2305 11.2314 11.2305h190.061c6.25195 0.636719 11.8682 -4.3418 11.8682 -11.2305zM127.461 309.174v50.6562
c0 10.0146 8.10547 18.7568 18.7578 18.7568h180.682c10.0156 0 18.7578 -8.10449 18.7578 -18.7568v-50.6562c0 -10.0156 -8.10547 -18.7568 -18.7578 -18.7568h-180.682c-10.6523 0 -18.7578 8.16309 -18.7578 18.7568zM150.561 313.574h171.94v41.9131h-171.94v-41.9131
v0zM421.323 52.248l-0.636719 -95.0596c0 -19.3945 -13.1416 -20.6104 -15.6309 -20.6104c-3.7627 0 -8.10547 1.27441 -11.8682 4.40039l-31.2617 26.2832l-29.9883 -25.0098c-3.12598 -2.48926 -8.10547 -6.25293 -13.7783 -6.25293
c-6.88965 0 -13.7783 4.97949 -14.9941 14.9941v1.27344v18.6992h-208.876c-16.9043 0 -30.625 13.7783 -30.625 30.625v415.784c0 16.9053 13.7783 30.625 30.625 30.625h290.736c16.9043 0 30.625 -13.7783 30.625 -30.625v-234.465
c9.37891 -6.88965 16.9043 -16.2676 22.5205 -26.8623c18.7559 -35.0244 10.6514 -78.2119 -16.8477 -103.8zM417.561 144.76c-4.97949 9.37793 -12.5049 17.4834 -21.2471 23.1562c-1.85254 1.27441 -3.7627 1.85254 -4.97852 3.12598
c-0.636719 0 -1.27441 0.637695 -1.85254 0.637695c-2.48926 1.27344 -4.39941 1.85156 -6.88965 3.12598h-0.636719c-13.1416 4.39941 -28.1357 4.39941 -41.2773 -0.637695h-0.636719c-2.48926 -1.27344 -4.97949 -1.85156 -7.52637 -3.7627
c-21.2461 -11.2305 -33.1143 -33.1143 -33.1143 -55.6338v0v0c0 -10.0156 2.48926 -20.0312 7.52539 -29.9893c1.27441 -2.48926 2.48926 -4.39941 4.40039 -6.88867c0.636719 -0.637695 0.636719 -1.27441 1.27344 -1.85254
c1.27344 -1.85254 2.48926 -3.12598 3.7627 -4.40039l1.27344 -1.27344c1.85254 -1.85254 3.76367 -3.7627 5.61621 -4.97852l0.636719 -0.636719c1.85254 -1.27441 3.12598 -2.48926 4.97949 -3.76367l0.636719 -0.636719c0.636719 0 0.636719 -0.636719 1.27344 -0.636719
s1.27344 -0.636719 1.85254 -0.636719c0.636719 -0.636719 1.85254 -0.636719 2.48926 -1.27344c14.3564 -6.88965 30.625 -8.10547 46.2559 -3.7627c0.636719 0 1.85254 0.636719 2.48926 0.636719s0.636719 0 1.27344 0.636719
c0.636719 0 1.27344 0.636719 1.85254 0.636719c1.85156 0.636719 3.7627 1.85254 5.61523 2.48926c1.85254 1.27344 3.7627 1.85254 4.97949 3.12598c1.85254 1.27344 3.12598 2.48926 4.97852 3.7627c22.5205 19.3945 29.9883 52.5674 14.9951 79.4297zM303.165 -4.66113
v44.4043h-160.709c-6.25293 0 -11.2314 4.97852 -11.2314 11.2305c0 6.25293 4.97852 11.2314 11.2314 11.2314h150.693v0c-0.636719 1.27344 -1.27344 1.85254 -2.48926 3.12598c-0.636719 0.636719 -1.27344 1.27344 -1.27344 1.85254
c-1.27344 1.27344 -1.85254 3.12598 -3.12598 4.97852l-0.636719 0.636719c-1.27441 2.48926 -2.48926 4.97949 -3.7627 8.10547v0c-2.48926 6.88965 -4.40039 13.7783 -5.61621 20.6094h-133.789c-6.25293 0 -11.2314 4.97949 -11.2314 11.2314
s4.97852 11.2305 11.2314 11.2305h133.789c0.636719 4.39941 1.27344 8.74219 2.48926 13.1416c3.12598 9.37891 7.52539 18.1211 13.1416 25.6465h-149.42c-6.25293 0 -11.2314 4.97852 -11.2314 11.2305s4.97852 11.2314 11.2314 11.2314h174.429
c1.27441 0.636719 2.48926 1.27344 3.76367 2.48926c2.48828 1.27344 4.97852 2.48926 8.10449 3.7627h0.636719c10.0156 4.39941 21.2471 6.25293 32.5361 6.25293c10.6523 0 20.6094 -1.85254 29.9883 -5.61621v0v225.261c0 4.39941 -3.12598 7.52539 -7.52539 7.52539
h-290.1c-4.39941 0 -7.52539 -3.12598 -7.52539 -7.52539v-413.931c0 -4.39941 3.12598 -7.52539 7.52539 -7.52539h208.817v-0.579102zM398.166 35.9805c-0.636719 0 -0.636719 0 -1.27344 -0.637695c0 0 -0.636719 0 -0.636719 -0.636719h-0.636719
c-1.27441 -0.636719 -2.48926 -0.636719 -3.76367 -1.27344c-0.636719 0 -0.636719 0 -1.27344 -0.636719c-0.636719 0 -1.27344 -0.636719 -1.85254 -0.636719h-0.636719h-0.636719s-0.636719 0 -1.27344 -0.636719h-0.636719c-0.636719 0 -1.27344 0 -1.85254 -0.636719
c-0.636719 0 -1.85254 -0.637695 -3.12598 -0.637695c-0.636719 0 -1.85254 -0.636719 -2.48926 -0.636719v0v0c-1.27344 0 -2.48926 -0.636719 -4.39941 -0.636719c-0.636719 0 -1.85254 0 -2.48926 -0.636719h-0.636719h-1.27344v0h-1.27441h-4.97852v0v0h-1.27344
h-1.27441v0v0c-1.85156 0 -4.39941 0 -6.25195 0.636719v0v0v0h-0.636719h-0.637695c-8.10449 0.636719 -16.2676 3.12598 -23.1562 6.25293v0v0c-0.637695 0.636719 -1.85254 0.636719 -2.48926 1.27344v0l-0.636719 -68.1387l28.1348 23.7354
c1.85254 1.85254 4.97949 2.48926 7.52637 2.48926c2.54785 0 5.61621 -0.636719 7.52637 -2.48926l28.1357 -23.7354z" />
    <glyph glyph-name="uniF130" unicode="&#xf130;" 
d="M494.814 418.177c7.9668 0 16.6162 -6.14648 17.1846 -19.0645v-350.376c0 -10.4141 -4.89453 -19.0068 -14.1133 -23.332c0 -0.625977 -0.625977 -0.625977 -0.625977 -0.625977l-138.909 -54.0615c-6.71484 -2.44727 -12.8613 -3.69824 -20.2588 -3.69824v0h-0.625977
c-8.02344 0 -13.543 1.19531 -16.6162 2.44727l-3.69922 1.25098l-142.608 55.3145l-149.324 -58.3867c-2.44727 -1.19531 -5.51953 -1.82129 -7.9668 -1.82129c-4.26855 0 -8.59277 1.82129 -11.666 4.89355c-5.51953 5.52051 -5.51953 12.9189 -5.51953 14.7393v348.499
c-0.625977 7.34082 3.07324 20.8838 18.4375 27.0303l133.96 52.2393c0.625977 0 1.82129 0.625977 2.44727 0.625977c6.14551 2.44727 12.291 3.69922 19.0635 3.69922v0h1.19434c6.14648 0 10.4717 -1.19434 13.5449 -1.82031
c0.625 -0.625977 0.625 -0.625977 1.25098 -0.625977l147.503 -57.1914l151.202 59.0127c0 0.625977 0.625977 0.625977 1.25195 0.625977c1.82031 0.625977 3.07324 0.625977 4.89355 0.625977zM22.2021 -8.9668l140.161 54.0615v346.62v0
c-1.25195 0 -1.82129 -0.625977 -3.07227 -0.625977l-132.764 -51.6143c-3.69922 -1.19531 -4.3252 -4.26855 -4.3252 -5.51953v-342.922zM185.069 45.7207l140.73 -54.6885v347.246l-140.73 54.6885v-347.246zM488.668 48.168h-0.0566406v344.8l-140.104 -54.6885v-347.246
c0 0.625977 0.625977 0.625977 0.625977 0.625977l138.284 54.0615c0.625977 0 1.25098 0.625977 1.25098 2.44727zM381.114 129.316c3.07227 5.51953 10.4707 7.39844 15.3643 3.69922l17.8125 -10.4707l15.9902 25.21c3.07324 5.51953 10.4717 6.77148 15.9912 3.69824
c5.51953 -3.07227 6.77148 -10.4707 3.69824 -15.9902l-15.9902 -24.584l17.1865 -10.4707c5.51953 -3.07324 7.39746 -10.4717 3.69824 -15.3652c-1.82031 -3.69922 -6.14551 -5.51953 -9.84473 -5.51953c-1.82031 0 -3.69922 0.625977 -5.51953 1.82031l-17.8125 10.4717
l-15.9902 -25.21c-2.44727 -3.69922 -6.14648 -5.52051 -9.8457 -5.52051c-1.82031 0 -4.32422 0.625977 -6.14551 1.82129c-5.51953 3.07324 -6.77246 10.4707 -3.69922 15.9902l15.9902 24.584l-17.1855 10.4717c-4.9502 3.07324 -6.77051 9.84473 -3.69824 15.3643z" />
    <glyph glyph-name="uniF15E" unicode="&#xf15e;" 
d="M415.604 252.363c44.2314 0 79.9336 -35.7021 80 -79.2725v-157.091c0 -44.2979 -35.7021 -80 -80 -80h-104.992h-109.95v0v0h-104.265c-44.2979 0 -80 35.7021 -80 80v157.091c0 44.2979 35.7021 80 80 80h91.4385v45.6855h-43.5703
c-12.165 0.727539 -16.3965 7.86816 -17.8516 10.7109c-2.18066 4.95898 -2.9082 12.0996 5.68652 20.6943l106.38 109.951c2.84277 2.18066 9.32227 7.86719 18.5791 7.86719c4.29688 0 10.71 -1.45508 17.123 -7.86719l107.901 -112.066
c7.86816 -7.86816 5.75195 -15.7363 4.29785 -18.5791c-1.45508 -4.29688 -6.47949 -10.7109 -19.3057 -10.7109h-42.8438v-46.4131h91.3721zM187.835 -38.2803v0.0654297h-0.727539v48.5283c0 0.727539 0.727539 2.11523 0.727539 2.84277v212.761h-91.4385
c-29.2891 0 -53.5537 -24.2637 -53.5537 -53.5537v-157.091c0 -29.2881 24.2646 -53.5527 53.5537 -53.5527h91.4385zM214.215 10.3135v-47.8008h84.2979v277.024v72.1328c0 7.13965 5.68555 12.8262 12.8262 12.8262h37.1572l-92.165 95.6035l-92.0996 -95.6699h37.1572
c7.13965 0 12.8262 -5.68652 12.8262 -12.8262v-72.7939v-228.496zM469.157 15.2725v157.092c0 29.2891 -24.2646 53.5537 -53.5537 53.5537h-91.3721v-264.198h91.3711c29.29 0 53.5547 24.2637 53.5547 53.5527z" />
    <glyph glyph-name="uniF135" unicode="&#xf135;" 
d="M257.376 140.859c41.5264 0 75.3643 -33.8369 75.3643 -75.3652c0 -41.5273 -33.8369 -75.3643 -75.3643 -75.3643c-41.5283 0 -75.3652 33.8369 -75.3652 75.3643c0 41.5283 33.8369 75.3652 75.3652 75.3652zM257.376 13.7324
c28.0986 0 51.7617 23.0117 51.7617 51.7617c0 28.751 -23.0117 51.7617 -51.7617 51.7617c-28.751 0 -51.7617 -23.0107 -51.7617 -51.7617c0 -28.75 23.0117 -51.7617 51.7617 -51.7617zM403.669 138.316c3.19434 -5.73828 0.651367 -12.7773 -5.08691 -15.9727
s-12.7773 -0.651367 -15.9727 5.08691c-23.6621 47.917 -71.5791 77.9688 -125.233 77.9688c-54.3057 0 -104.115 -31.2939 -126.477 -80.5117c-1.89258 -4.49609 -6.38867 -7.04004 -10.8848 -7.04004c-1.89258 0 -3.19434 0.651367 -5.08691 1.30176
c-5.73828 2.54395 -8.28125 9.58301 -5.73828 15.9727c26.8574 57.5 84.9482 93.9395 148.246 93.9395c62.5859 0 118.785 -34.5469 146.233 -90.7451zM459.927 209.244c3.84473 -5.08691 2.54395 -12.7773 -2.54395 -16.623s-12.7773 -2.54395 -16.623 2.54395
c-42.1787 59.3926 -110.504 95.1826 -183.385 95.1826c-73.4727 0 -142.448 -35.79 -183.977 -95.833c-2.54395 -3.19434 -5.73828 -5.08789 -9.58301 -5.08789c-2.54395 0 -4.49609 0.651367 -7.04004 1.89355c-5.08691 3.84473 -6.38867 10.8848 -3.19434 16.623
c46.6152 66.4326 122.69 106.067 203.794 106.067c79.8613 -0.000976562 155.877 -39.6357 202.552 -104.767zM507.843 259.054c-5.08691 -4.49609 -12.7773 -3.19434 -16.623 1.30176c-58.1514 69.627 -143.75 109.912 -234.496 109.912
c-91.3369 0 -177.587 -40.877 -235.737 -111.154c-2.54395 -2.54395 -5.73828 -4.49609 -8.93262 -4.49609c-2.54395 0 -5.08691 0.651367 -7.69043 2.54395c-5.08691 3.84473 -5.73828 11.4766 -1.89258 16.623c62.5879 76.0156 155.227 120.087 253.663 120.087
c97.7256 0 189.773 -42.8281 252.36 -118.194c5.08691 -5.08691 4.43652 -12.7783 -0.651367 -16.623z" />
    <glyph glyph-name="uniF155" unicode="&#xf155;" 
d="M472.753 269.014c21.916 0 39.2471 -17.3906 39.248 -38.6523v-15.4248c0 -14.7695 -8.39746 -26.9785 -19.9512 -34.0654l-41.8086 -217.379v-1.30957c-3.21582 -10.8994 -12.8633 -17.9863 -25.7275 -17.9863h-333.811c-20.6064 0 -28.2881 14.7705 -29.5986 22.5117v0
l-41.1533 213.567c-11.6133 6.43164 -19.9512 19.2949 -19.9512 34.0654v15.4248c0 21.8574 17.3906 39.248 39.2471 39.248h23.168l186.527 167.887c4.52734 3.87012 11.5547 3.87012 16.0801 0l183.312 -167.887h24.418zM256.686 412.423l-158.896 -142.814h315.169z
M23.8223 229.766v0v-15.4248c0 -8.33887 7.08789 -15.4258 15.4248 -15.4258h433.506c8.33887 0 15.4258 7.08789 15.4258 15.4258v15.4248c0 8.33887 -7.08789 15.4258 -15.4258 15.4258h-433.506c-8.33789 0 -15.4248 -7.08789 -15.4248 -15.4258zM427.134 -31.3857
l39.8418 207.075h-421.951l39.9023 -204.515c0.655273 -3.21582 4.4668 -3.21582 5.77637 -3.21582h333.215c2.56055 0 3.21582 0 3.21582 0.655273zM117.741 105.652c0 6.43164 5.12207 11.5527 11.5537 11.5527h248.288c6.43164 0 11.5537 -5.12109 11.5537 -11.5527
c0 -6.43262 -5.12207 -11.5537 -11.5537 -11.5537h-247.633c-6.43164 -0.0605469 -12.209 5.12109 -12.209 11.5537zM376.272 39.3662c0 -6.43164 -5.12207 -11.5537 -11.5537 -11.5537h-220.594c-6.43262 0 -11.5537 5.12207 -11.5537 11.5537
s5.12109 11.5537 11.5537 11.5537h219.998c6.37207 0.0605469 12.1494 -5.12207 12.1494 -11.5537z" />
    <glyph glyph-name="uniF15F" unicode="&#xf15f;" 
d="M473.652 378.669c21.0371 0 38.3477 -17.3105 38.3477 -38.4053v-346.053c0 -21.0947 -17.3691 -38.4062 -38.4062 -38.4062h-435.188c-21.0957 0 -38.4062 17.3691 -38.4062 38.4062v346.053c0 21.0947 17.3691 38.4053 38.4062 38.4053h52.6201v27.8594
c0 11.751 9.91699 21.668 21.668 21.668h30.9541c11.751 0 21.668 -9.91699 21.668 -21.668v-27.8594h183.889v27.8594c0 11.751 9.91699 21.668 21.668 21.668h30.9541c11.751 0 21.668 -9.91699 21.668 -21.668v-27.8594h50.1572zM372.135 404.693v-37.7754v-30.3232
h28.4883v30.3232v37.7754h-28.4883zM113.956 404.693v-37.7754v-30.3232h28.4883v30.3232v37.7754h-28.4883zM39.0371 355.74c-8.65723 0 -15.4775 -6.76367 -15.4775 -15.4766v-61.9082h466.201v61.9082c0 8.65527 -6.82129 15.4766 -15.4775 15.4766h-50.7871v-20.4062
c0 -11.751 -9.91699 -21.668 -21.668 -21.668h-30.9541c-11.751 0 -21.668 9.91699 -21.668 21.668v20.4062h-183.258v-20.4062c0 -11.751 -9.91699 -21.668 -21.668 -21.668h-30.9541c-11.751 0 -21.668 9.91699 -21.668 21.668v20.4062h-52.6211zM473.652 -21.2666
c8.65527 0 15.4756 6.82227 15.4766 15.4775v261.272h-465.569v-261.272c0 -8.65527 6.82129 -15.4775 15.4775 -15.4775h434.615zM124.503 192.946c0 -6.19043 -4.92969 -11.1201 -11.1201 -11.1201h-37.1445c-6.19141 0 -11.1201 4.92969 -11.1201 11.1201
s4.92969 11.1201 11.1201 11.1201h37.1436c6.13379 0.630859 11.1211 -4.93066 11.1211 -11.1201zM231.58 192.946c0 -6.19043 -4.92969 -11.1201 -11.1201 -11.1201h-37.1436c-6.19141 0 -11.1201 4.92969 -11.1201 11.1201s4.92969 11.1201 11.1201 11.1201h37.1436
c5.56055 0.630859 11.1201 -4.93066 11.1201 -11.1201zM338.085 192.946c0 -6.19043 -4.92969 -11.1201 -11.1201 -11.1201h-37.1445c-6.19043 0 -11.1201 4.92969 -11.1201 11.1201s4.93066 11.1201 11.1201 11.1201h37.1445
c6.13281 0.630859 11.1201 -4.93066 11.1201 -11.1201zM445.162 192.946c0 -6.19043 -4.92969 -11.1201 -11.1201 -11.1201h-37.1445c-6.19141 0 -11.1201 4.92969 -11.1201 11.1201s4.92969 11.1201 11.1201 11.1201h37.1445
c6.19141 0.630859 11.1201 -4.93066 11.1201 -11.1201zM124.503 116.822c0 -6.19141 -4.92969 -11.1201 -11.1201 -11.1201h-37.1445c-6.19141 0 -11.1201 4.92969 -11.1201 11.1201s4.92969 11.1201 11.1201 11.1201h37.1436c6.13379 0 11.1211 -4.92969 11.1211 -11.1201z
M231.58 116.822c0 -6.19141 -4.92969 -11.1201 -11.1201 -11.1201h-37.1436c-6.19141 0 -11.1201 4.92969 -11.1201 11.1201s4.92969 11.1201 11.1201 11.1201h37.1436c5.56055 0 11.1201 -4.92969 11.1201 -11.1201zM338.085 116.822
c0 -6.19141 -4.92969 -11.1201 -11.1201 -11.1201h-37.1445c-6.19043 0 -11.1201 4.92969 -11.1201 11.1201s4.93066 11.1201 11.1201 11.1201h37.1445c6.13281 0 11.1201 -4.92969 11.1201 -11.1201zM445.162 116.822c0 -6.19141 -4.92969 -11.1201 -11.1201 -11.1201
h-37.1445c-6.19141 0 -11.1201 4.92969 -11.1201 11.1201s4.92969 11.1201 11.1201 11.1201h37.1445c6.19141 0 11.1201 -4.92969 11.1201 -11.1201zM124.503 40.0107c0 -6.19141 -4.92969 -11.1201 -11.1201 -11.1201h-37.1445
c-6.19141 0 -11.1201 4.92871 -11.1201 11.1201c0 6.19043 4.92969 11.1201 11.1201 11.1201h37.1436c6.13379 0.688477 11.1211 -4.29883 11.1211 -11.1201zM231.58 40.0107c0 -6.19141 -4.92969 -11.1201 -11.1201 -11.1201h-37.1436
c-6.19141 0 -11.1201 4.92871 -11.1201 11.1201c0 6.19043 4.92969 11.1201 11.1201 11.1201h37.1436c5.56055 0.688477 11.1201 -4.29883 11.1201 -11.1201zM338.085 40.0107c0 -6.19141 -4.92969 -11.1201 -11.1201 -11.1201h-37.1445
c-6.19043 0 -11.1201 4.92871 -11.1201 11.1201c0 6.19043 4.93066 11.1201 11.1201 11.1201h37.1445c6.13281 0.688477 11.1201 -4.29883 11.1201 -11.1201zM445.162 40.0107c0 -6.19141 -4.92969 -11.1201 -11.1201 -11.1201h-37.1445
c-6.19141 0 -11.1201 4.92871 -11.1201 11.1201c0 6.19043 4.92969 11.1201 11.1201 11.1201h37.1445c6.19141 0.688477 11.1201 -4.29883 11.1201 -11.1201z" />
    <glyph glyph-name="uniF118" unicode="&#xf118;" 
d="M451.246 448c17.9766 0 33.0898 -15.1133 33.7568 -33.0898v-125.171c0 -18.709 -15.1143 -33.0898 -33.0898 -33.0898h-58.2578c-18.709 0 -33.0898 15.1143 -33.0898 33.0898v33.8232h-43.1445v-262.459h44.6094c17.2441 0 31.625 -14.3818 31.625 -31.626v-61.1201
c0 -17.2441 -14.3809 -31.625 -31.625 -31.625h-54.6631c-0.732422 -0.733398 -1.39746 -0.733398 -2.8623 -0.733398h-97.8066c-1.46484 0 -2.86328 0.733398 -3.5957 0.733398h-56.0605c-17.2441 0 -31.625 14.3809 -31.625 31.625v61.8535
c0 17.2441 14.3809 31.625 31.625 31.625h46.0068v262.46h-41.6787v-33.8223c0 -18.71 -15.1143 -33.0908 -33.0908 -33.0908h-58.1904c-18.709 0 -33.0908 15.1143 -33.0908 33.0908v71.1729v0.732422v46.7393v0.731445v5.06055c0 18.709 15.1143 33.0898 33.0908 33.0898
h391.157zM457.704 289.807v0v125.036c0 3.59473 -2.8623 6.45801 -6.45801 6.45801h-391.157c-3.5957 0 -6.45898 -2.86328 -6.45898 -6.45801v-5.72559v-0.732422v-45.2744v-0.732422v-71.9062c0 -3.5957 2.86328 -6.45898 6.45898 -6.45898h58.2568
c3.5957 0 6.45801 2.86426 6.45801 6.45898v46.7393c0 7.19043 5.72656 12.916 12.917 12.916h68.3115c7.19043 0 12.916 -5.72559 12.916 -12.916v-289.756c0 -7.19043 -5.72559 -12.917 -12.916 -12.917h-59.6553c-2.92871 0 -5.05957 -2.19629 -5.05957 -5.05957
v-61.1201c0 -2.92969 2.19629 -5.05957 5.05957 -5.05957h59.6553c1.46387 0 2.86328 -0.732422 3.59473 -0.732422h90.6172c1.46484 0.732422 2.12988 0.732422 3.59473 0.732422h58.2578c2.92969 0 5.05957 2.19629 5.05957 5.05957v61.1201
c0 2.92969 -2.19727 5.05957 -5.05957 5.05957h-58.2578c-7.19043 0 -12.916 5.72656 -12.916 12.917v289.09c0 7.19141 5.72559 12.917 12.916 12.917h69.7764c7.19043 0 12.916 -5.72559 12.916 -12.917v-46.7383c0 -3.5957 2.86328 -6.45801 6.45801 -6.45801h58.2568
c3.5957 0 6.45801 2.8623 6.45801 6.45801z" />
    <glyph glyph-name="uniF10E" unicode="&#xf10e;" 
d="M133.463 230.96c-31.6094 0 -56.9102 26.0156 -57.625 57.625c0 31.6094 26.0166 57.626 57.625 57.626c31.6094 0 57.626 -26.0166 57.626 -57.626c0 -31.6084 -26.0156 -57.625 -57.626 -57.625zM133.463 320.195c-16.8447 0 -30.8936 -14.0488 -31.6094 -31.6104
c0 -17.5605 14.0488 -31.6094 31.6094 -31.6094c17.5615 0 31.6104 14.0488 31.6104 31.6094c0 17.5615 -14.0488 31.6104 -31.6104 31.6104zM477.659 417.105c18.9258 0 33.6904 -15.415 34.3408 -33.6914v-382.828c0 -18.9268 -15.415 -33.6914 -33.6904 -33.6914
h-444.619c-18.9258 0 -33.6904 15.415 -33.6904 33.6914v382.828c0 18.9277 15.415 33.6914 33.6904 33.6914h443.969zM485.398 53.2676v0v125.008l-106.081 118.699l-127.87 -181.918c-2.08203 -3.5127 -5.59277 -4.87793 -9.10547 -5.59375
c-4.22852 0 -7.74023 0.71582 -10.5371 3.5127l-50.6016 47.0889l-80.0654 -106.797h384.261zM33.6904 391.154c-4.22656 0 -7.73926 -3.51172 -7.73926 -7.02441v-330.146h42.8623l100.487 133.398c2.08105 2.8623 5.59277 4.94336 9.10547 4.94336
s7.02441 -0.714844 9.82129 -3.5127l50.6016 -46.3086l129.236 183.35c2.08203 3.51172 5.59375 5.59375 9.82129 5.59375s7.73926 -1.43066 10.5361 -4.22754l97.626 -108.879v165.073c0 4.22754 -3.51172 7.74023 -7.73926 7.74023h-444.619zM477.659 -7.15527
c4.22656 0 7.73926 3.5127 7.67383 7.74023v26.666h-459.382v-26.666c0 -4.22754 3.51172 -7.74023 7.73926 -7.74023h443.969z" />
    <glyph glyph-name="uniF128" unicode="&#xf128;" 
d="M470.394 72.6719c19.4658 0 36.0107 -16.5449 36.0107 -35.3154v-66.042c0 -19.5352 -15.7803 -35.3154 -35.3154 -35.3154h-430.178c-19.5342 0 -35.3145 15.7803 -35.3145 35.3154v66.042c0 19.5342 15.7803 35.3154 35.3145 35.3154h198.196
c-0.765625 0.763672 -2.22559 2.22461 -2.98926 2.98926l-98.3682 102.053c-7.50781 8.27246 -6.8125 15.7812 -5.2832 19.5342c0.764648 2.98926 4.51855 9.73242 15.7803 11.2617h1.5293h41.2939v226.004c0 7.50781 5.97852 13.4863 13.4863 13.4863h102.887
c7.50879 0 13.4873 -5.97852 13.4883 -13.4863v-225.934h42.127h2.22461c9.73242 -1.5293 13.4863 -8.27246 14.251 -11.2617c1.5293 -4.51855 1.5293 -12.0264 -5.97852 -19.5342l-99.1338 -102.887c-0.763672 -0.695312 -1.45898 -1.46094 -2.98926 -2.22559h198.961z
M173.829 180.008l81.8232 -84.1162l81.0586 84.8809h-30.7969c-7.50781 0 -13.4863 5.97852 -13.4863 13.4863v226.004h-74.3154v-226.769c0 -7.50781 -5.97852 -13.4863 -13.4863 -13.4863h-30.7969zM478.598 -29.4502v66.042c0 3.75488 -2.99023 7.50781 -7.50879 7.50781
h-430.178c-3.75391 0 -7.50781 -2.98926 -7.50781 -7.50781v-66.042c0 -3.75391 2.98926 -7.50781 7.50781 -7.50781h430.178c3.75488 0 7.50879 2.98926 7.50879 7.50781z" />
    <glyph glyph-name="uniF14C" unicode="&#xf14c;" 
d="M478.576 66.7227c-0.680664 -1.29883 -1.36133 -1.98047 -2.59961 -3.40332c-44.8125 -75.5127 -127.01 -126.329 -220.596 -126.329c-141.06 0 -255.381 114.321 -255.381 255.381v0v0v0c0 46.1123 12.0078 88.8828 33.4238 125.648
c0.619141 0.680664 1.2998 1.98047 1.98047 2.66113c44.8125 75.5127 127.01 126.329 220.596 126.329c94.2666 0 176.464 -50.8164 220.596 -126.33c0.619141 -0.680664 1.2998 -1.2998 1.98047 -2.66113c21.416 -36.7656 33.4238 -80.2168 33.4238 -125.647
c0 -45.4316 -12.0078 -88.2012 -33.4238 -125.648zM25.9961 180.364c2.04297 -34.7246 11.3887 -67.4668 26.7383 -96.9287h78.2373c-10.6465 30.7617 -17.332 63.5049 -18.6934 96.9287h-86.2822zM52.7344 301.369c-15.3496 -28.7197 -24.6953 -61.4619 -26.7383 -96.2471
h86.2822c1.2998 33.4238 7.30273 65.4854 18.6924 96.2471h-78.2363zM486.623 205.122c-2.04297 34.7852 -11.3887 67.5273 -26.7383 96.2471h-76.875c10.6465 -30.7617 17.3311 -62.8232 18.6924 -96.2471h84.9209zM376.943 205.122
c-1.29883 34.1035 -8.66504 66.166 -20.7344 96.2471h-87.582v-96.2471h108.316zM268.688 326.128v0.680664h76.1934c-18.0117 35.4043 -44.1318 66.8467 -76.1934 92.9053v-93.5859zM243.931 418.353c-31.3818 -26.0586 -56.8203 -56.8203 -74.8936 -91.6055h74.8936
v91.6055zM243.931 301.369h-86.2207c-12.0693 -30.0811 -19.374 -62.8232 -20.7354 -96.2471h106.956v96.2471zM136.975 180.364c1.36133 -33.4238 8.72754 -66.167 20.7354 -96.9287h86.2207v96.9287h-106.956zM243.931 58.7393h-74.8936
c18.0732 -34.7852 43.4502 -66.2285 74.8936 -91.6055v91.6055zM268.688 -34.167c32.0615 26.0586 57.501 57.4404 76.1934 92.9062h-76.1934v-92.9062zM268.688 83.4355v0h87.582c12.0693 30.0811 19.374 62.8232 20.7354 96.9287h-108.317v-96.9287zM401.702 180.364
c-1.36133 -33.4238 -8.0459 -66.167 -18.6914 -96.9287h76.1934c16.0303 28.7197 25.4395 62.1436 27.4199 96.9287h-84.9219zM444.473 326.128c-32.7432 45.4307 -80.8975 78.1738 -136.357 90.9238c26.7402 -26.0576 48.8359 -57.5 64.1865 -90.9238h72.1709z
M206.484 417.671c-56.8213 -12.0068 -105.595 -45.4307 -138.338 -91.6055h73.4717c16.0918 34.1055 37.4463 64.8672 64.8662 91.6055zM68.1465 58.7393c32.7432 -45.4941 81.5166 -78.917 137.718 -91.6055c-27.4199 26.7393 -48.835 57.501 -64.8662 91.6055h-72.8516z
M308.115 -32.1865c55.46 12.6895 103.614 46.1123 135.738 90.9248h-71.5518c-15.4121 -33.4238 -37.4473 -64.1855 -64.1865 -90.9248z" />
    <glyph glyph-name="uniF104" unicode="&#xf104;" 
d="M499.119 337.214c7.83496 -7.83496 12.8809 -17.9277 12.8799 -30.1455c0 -12.1504 -4.97949 -22.9062 -12.8809 -30.8086l-279.008 -278.94c-8.56445 -8.56445 -18.5908 -12.8809 -30.8086 -12.8809c-12.1504 0 -22.9072 4.97949 -30.8086 12.8809l-144.151 144.151
c-9.2959 9.2959 -14.3418 21.5137 -14.3418 35.125s5.0459 25.8291 14.3428 35.125l39.4404 39.4404c9.2959 9.2959 22.2441 14.3418 35.125 14.3418c13.6113 0 25.8291 -5.0459 35.125 -14.3418l64.5391 -64.54l199.463 200.061
c8.56445 8.56445 18.5908 12.8809 30.8086 12.8809c12.1504 0 22.9072 -4.97949 30.8086 -12.8809zM479.73 294.918c3.58496 2.85547 5.04688 7.1709 4.98047 12.2178c0 4.31543 -2.19141 8.63086 -5.04688 11.4863l-49.4668 49.4678
c-6.44141 6.44043 -17.1973 6.44043 -23.6387 0l-209.421 -209.422c-5.04688 -5.0459 -13.6113 -5.0459 -18.6582 0l-72.4414 74.5654c-4.24902 4.31641 -10.0254 6.44141 -16.4668 6.44141c-6.44043 0 -12.1504 -2.125 -16.4668 -6.44141l-39.4404 -39.4404
c-4.31641 -4.24902 -6.44141 -10.0264 -6.44141 -16.4668c0 -6.44141 2.125 -12.1514 6.44141 -16.4668l144.218 -144.882c6.44043 -6.44141 17.1973 -6.44141 23.6377 0z" />
    <glyph glyph-name="uniF13E" unicode="&#xf13e;" 
d="M424.213 265.118c12.8564 -3.05859 22.0312 -14.6689 22.0312 -28.1484v-220.828c0 -44.0635 -36.0781 -80.1416 -80.1416 -80.1416h-220.205c-44.0635 0 -80.1416 36.0781 -80.1416 80.1416v220.828c0 13.4795 9.79785 25.0898 22.6543 28.1484v14.6689
c0 92.999 74.5918 168.213 167.59 168.213s168.213 -75.2139 168.213 -168.213v-14.6689zM111.009 279.787v0l0.0566406 -14.0459h42.8174v15.292c0 56.8643 46.499 103.363 103.363 103.363c56.8633 0 103.362 -46.499 103.362 -103.363v-15.292h40.9492v14.0459
c0 80.085 -65.416 145.558 -145.558 145.558s-144.991 -64.793 -144.991 -145.558zM337.954 281.657c0 44.6299 -36.0205 80.7646 -80.708 80.7646c-44.6865 0 -80.7646 -36.1348 -80.7646 -80.7646v-15.292h161.473v15.292zM423.59 15.5752l-0.509766 -0.000976562v221.452
c0 3.68164 -3.05859 6.74023 -6.74023 6.74023h-3.68164h-63.6035h-184.127h-65.4727h-4.30469c-3.68164 0 -6.74023 -3.05859 -6.74023 -6.74023v-221.451c0 -31.7734 25.6572 -57.4863 57.4873 -57.4863h220.205c31.7734 0 57.4873 25.6562 57.4873 57.4863z
M254.131 194.152c29.3945 0 53.2393 -23.2217 52.502 -52.6162c0 -13.4229 -4.87109 -26.2793 -14.0459 -36.0781v-72.7783c0 -14.6689 -11.6104 -26.2793 -26.2793 -26.2793h-25.0908c-14.668 0 -26.2793 11.6104 -26.2793 26.2793v72.1553
c-9.1748 9.79883 -14.0449 22.5986 -14.0449 36.0781c0 29.3945 23.9004 53.2393 53.2383 53.2393zM273.728 118.938c6.74023 5.49512 10.9873 14.0469 10.9307 22.6553c0 17.1045 -13.4795 30.584 -30.584 30.584s-30.584 -14.0459 -30.584 -30.584
c0 -8.60938 3.68066 -17.1611 10.4209 -22.6553c2.43555 -2.43457 3.68164 -5.49316 3.68164 -8.55176v-76.46c0 -1.86914 1.86914 -3.68164 3.68164 -3.68164h25.0898c1.86914 0 3.68164 1.86914 3.68164 3.68164v76.46c0 3.05859 1.24609 6.11719 3.68164 8.55176z" />
    <glyph glyph-name="uniF12B" unicode="&#xf12b;" 
d="M256 448c141.402 0 256 -114.598 256 -256s-114.598 -256 -256 -256s-256 114.598 -256 256s114.598 256 256 256zM256 -39.8027c128 0 231.182 103.864 231.182 231.182c0 127.318 -103.864 231.183 -231.182 231.183s-231.182 -103.864 -231.182 -231.183
c0 -127.317 103.864 -231.182 231.182 -231.182zM379.967 208.132c0 0 0.682617 -0.682617 2.04785 -1.36523c6.70117 -8.06543 10.0518 -22.1504 -4.0332 -34.8691l-84.4434 -78.4258c-4.0332 -4.03223 -8.68652 -6.01855 -13.4014 -6.01855
c-4.03418 0 -17.4355 1.36523 -17.4355 23.4531v46.9072l-68.9941 -64.3418c-4.0332 -4.03223 -8.68652 -6.01855 -13.4023 -6.01855c-4.0332 0 -17.4346 1.36426 -17.4346 23.4531v160.822c0 21.4668 12.7197 23.4531 16.752 23.4531
c4.6543 0 8.68652 -1.30371 12.7197 -5.33594l69.6768 -65.0244v47.5908c0 21.4668 12.7197 23.4531 16.7529 23.4531c4.65332 0 8.68555 -1.30371 12.7188 -5.33594zM260.033 190.014c0.620117 0.682617 1.30273 1.36523 1.30176 2.04785l-74.3926 68.9941v-138.733z
M359.864 190.014c0.682617 0.682617 1.30273 1.36523 1.36523 2.04785l-74.3926 68.9941v-138.733z" />
    <glyph glyph-name="uniF12F" unicode="&#xf12f;" 
d="M484.654 64.2969c3.62012 -8.59863 1.80957 -14.708 0.62207 -19.6289c-4.92188 -9.16406 -14.708 -10.9746 -16.5176 -11.5967h-2.43262h-188.203c-14.0859 0 -25.0596 11.5967 -25.0596 25.0596v3.05469v56.2295h-116.021v-134.351
c0 -25.6816 -21.3828 -47.0645 -47.0654 -47.0645c-25.6816 0 -47.0645 21.3828 -47.0645 47.0645v348.235c0 1.86621 0 4.29883 0.62207 6.73145c-11.5967 11.5967 -18.3281 27.4922 -18.3281 45.1982c0 35.4678 29.3027 64.7705 64.7705 64.7705
c35.4688 0 64.7715 -29.3594 64.7715 -64.7705v-3.67676h181.414c14.0859 0 25.0596 -11.5967 25.0596 -25.0605v-59.2832h102.615c2.43262 0 11.5967 -0.62207 17.084 -8.54199c3.05469 -3.67676 4.9209 -9.78613 1.24414 -18.9502l-41.5215 -103.237zM90.5986 425.316
c-23.249 0 -42.1992 -18.8945 -42.2559 -42.8223c0 -13.4072 6.10938 -25.0605 15.8955 -32.9795c12.8408 -10.4092 32.4141 -11.5967 47.0645 -3.67676c0.623047 0 0.623047 0.62207 1.24512 0.62207c1.86621 1.24414 3.05469 1.80957 4.29883 3.05469l4.29883 4.29883v0
c3.05566 3.05469 5.54395 6.73145 7.35449 10.4092v0.62207c1.1875 1.80957 1.81055 4.29883 2.43262 6.10938c1.1875 4.29883 1.80957 7.91895 1.80957 12.2188c0 23.1924 -18.9502 42.1436 -42.1436 42.1436zM115.036 -16.9922v0.113281h0.623047v146.003v194.256
c-0.623047 -0.62207 -0.623047 -0.62207 -1.24512 -0.62207c-0.56543 0 -1.1875 -0.62207 -1.80957 -0.62207h-0.623047h-0.62207v0v0c-0.56543 0 -1.1875 -0.62207 -1.80957 -0.62207v0c-0.623047 -0.623047 -0.623047 -0.623047 -1.24512 -0.623047
s-1.80957 -0.62207 -2.43262 -0.62207c-0.62207 0 -1.80957 -0.62207 -2.43164 -0.62207h-1.24512h-0.62207v0h-1.81055c-1.24414 -0.62207 -1.80957 -0.62207 -3.05469 -0.62207h-5.48633v0v0h-5.4873c-1.24512 0.62207 -1.81055 0.62207 -3.05469 0.62207h-0.62207v0v0
h-0.623047h-0.62207c-3.05469 0.56543 -5.4873 1.1875 -7.91895 1.81055v0v0h-0.623047c-1.86621 0 -3.05469 0.62207 -4.29883 1.24414c-0.56543 0 -1.1875 0.62207 -1.81055 0.62207v-340.315c0 -13.4629 10.9746 -24.4375 24.4375 -24.4375
c13.4639 0 24.4375 10.9746 24.4375 24.4375zM137.607 331.243v-191.88h127.109h71.502c1.1875 0 2.43262 1.1875 2.43262 2.43262v141.76v70.2578c0 1.18848 -1.18848 2.43262 -2.43262 2.43262h-186.958c0 -0.62207 -0.62207 -1.81055 -1.24512 -2.43262
c-0.62207 -0.56543 -0.62207 -1.1875 -1.24414 -1.80957c-1.86719 -3.67773 -4.29883 -6.73242 -6.73145 -9.78711c0 -0.56543 -0.62207 -1.1875 -1.24512 -1.80957c-0.56543 -0.62207 -1.1875 -1.81055 -1.80957 -2.43262
c0.62207 -2.43262 0.62207 -4.29883 0.62207 -6.73145zM316.646 117.415v0h-40.334v-44.0107zM290.342 56.3213v0h172.93l-45.1982 103.859c-1.24414 2.43164 -1.24414 5.48633 0 8.54102l42.1436 103.86h-98.9951v-130.107c0 -7.97656 -3.67676 -15.2734 -9.78613 -19.5732
c-0.62207 -0.56543 -0.62207 -1.1875 -1.24414 -1.80957z" />
    <glyph glyph-name="uniF10C" unicode="&#xf10c;" 
d="M465.692 245.811c0 0 0 -0.693359 -1.9541 -1.32422v-283.961c0 -12.9248 -10.2139 -23.832 -23.832 -23.832h-117.14c-12.9248 0 -23.832 10.2139 -23.832 23.832v143.683h-86.499v-96.082v-2.01758v-46.2764c0 -12.9248 -10.2139 -23.832 -23.832 -23.832h-118.464
c-12.9248 0 -23.832 10.2139 -23.832 23.832v283.268v0.693359c0 4.79199 1.32422 12.2305 5.42188 20.4268c0.694336 0 0.694336 0.694336 0.694336 0.694336c2.70996 6.11426 7.50195 12.9238 14.3105 19.7324l144.377 140.279
c12.9238 12.9238 27.2363 19.7334 42.8711 19.7334c20.4268 0 36.125 -12.2314 41.5479 -17.0234l40.1602 -38.8359v33.3516c0 14.248 11.5381 25.8486 25.8486 25.8486h44.9531c14.248 0 25.8486 -11.5371 25.8486 -25.8486v-123.192v-1.3877l16.3291 -16.3281
l0.694336 -0.694336c12.2305 -12.9248 15.6348 -25.9121 16.3281 -34.7383zM361.539 422.845l-0.693359 -57.877l45.6465 -43.5654v100.749zM228.765 407.209l-138.261 -134.856h330.931l-142.989 136.874c-2.71191 2.71094 -12.2314 10.2129 -23.832 10.2129
c-8.82617 0 -17.6533 -4.03418 -25.8486 -12.2305zM440.537 -38.0879v0v281.881c0 0.692383 -0.693359 2.0166 -0.693359 3.4043h-0.694336h-366.993c-0.693359 -1.3877 -0.693359 -2.71094 -0.693359 -4.09863v-281.187h117.141v47.6631v2.01758v104.846
c0 6.80957 5.42188 12.2314 12.2314 12.2314h112.411c6.80957 0 12.2314 -5.42188 12.2314 -12.2314v-154.526h115.06z" />
    <glyph glyph-name="uniF149" unicode="&#xf149;" 
d="M510.271 297.987c5.53711 -36.8203 -2.12402 -72.9971 -24.3965 -106.985c-20.8555 -31.2842 -45.832 -59.7998 -68.1045 -83.4248c-42.4209 -45.8965 -87.6094 -88.9609 -129.322 -128.613c-9.78418 -9.0127 -20.8564 -13.9053 -32.7002 -13.9053
c-13.9043 0 -24.9756 6.95312 -29.8682 11.1367l-2.76855 2.76855l-6.24316 6.24316l-24.332 23.625c-24.9766 24.332 -50.0166 49.3721 -75.0576 74.4121c-36.1123 37.5293 -63.9209 69.5215 -86.1934 100.806c-20.8555 29.1592 -31.2842 58.3848 -31.2842 88.9609
c0 52.1416 22.916 93.1455 68.748 122.304c38.2363 24.333 79.9492 29.8691 122.37 15.9648c23.624 -7.66016 44.4805 -22.916 64.6289 -47.957c6.95117 7.66016 13.1953 14.6133 20.8555 21.5654c23.6895 22.208 54.9736 34.0527 88.3174 34.0527
c25.749 0 51.4971 -6.95215 74.4131 -20.8564c40.3613 -23.623 63.9854 -57.6758 70.9375 -100.097zM464.375 205.55c18.7959 28.5166 25.04 57.6768 20.2129 89.0264c-5.53613 35.4053 -25.041 61.8613 -58.3857 82.0098
c-18.7314 11.1357 -39.5879 17.3799 -61.1523 17.3799c-27.165 0 -51.4971 -9.0127 -70.9375 -27.1006c-6.24414 -6.24414 -12.4883 -13.1963 -19.4404 -20.8564l-0.708008 -1.41602c-6.24316 -6.95215 -13.1953 -8.36914 -17.3799 -8.36914
c-10.4277 0 -16.6719 6.95215 -18.0879 8.36914c-18.0889 22.2725 -35.4688 35.4678 -55.6172 42.4209c-12.4873 4.18359 -25.04 6.24316 -37.5273 6.24316c-21.5645 0 -43.1289 -6.24414 -63.2773 -19.4404c-38.2363 -24.332 -56.3252 -57.6768 -56.3252 -100.806
c0 -25.04 9.0127 -49.3721 26.3926 -74.4131c22.2725 -30.5762 47.9561 -60.5088 84.1328 -97.3291c24.332 -25.041 50.0811 -49.373 74.4131 -73.7051l24.332 -22.916c2.05957 -2.05957 4.18457 -4.18359 6.24414 -6.24316l2.05957 -2.05957
c1.35156 -1.41699 6.24414 -4.89258 12.4883 -4.89258c4.8916 0 9.78418 2.05957 15.3203 6.95215c41.7129 38.8799 85.4854 82.0078 127.905 127.197c22.209 24.332 45.8975 50.0811 65.3379 79.9482zM178.63 320.968
c-2.76855 -6.24316 -10.4277 -9.01172 -17.3799 -6.24316c-6.24316 2.76855 -12.4883 4.18359 -19.4404 4.18359c-25.748 0 -46.6045 -20.8555 -46.6045 -46.6045c0 -9.01172 2.76855 -18.0879 7.66016 -25.748c4.18359 -5.53613 2.05957 -13.9053 -3.47559 -18.0889
c-2.06055 -1.41602 -4.89258 -2.05957 -6.95312 -2.05957c-4.18359 0 -8.36816 2.05957 -10.4277 5.53613c-7.66016 11.8438 -11.8447 25.748 -11.8447 40.2959c0 39.6533 32.7012 72.2891 72.2891 72.2891c10.4287 0 20.8564 -2.05957 30.5771 -6.95215
c5.59961 -2.7041 8.36816 -10.3643 5.59961 -16.6084z" />
    <glyph glyph-name="uniF120" unicode="&#xf120;" 
d="M256 448c140.72 0 256 -114.598 256 -256s-114.598 -256 -256 -256s-256 114.598 -256 256s114.598 256 256 256zM256 -39.1816c127.317 0 231.182 103.864 231.182 231.182s-103.182 231.182 -231.182 231.182s-231.182 -103.864 -231.182 -231.182
s103.864 -231.182 231.182 -231.182zM266.734 68.0332c0 -7.38379 -6.01953 -13.4014 -13.4023 -13.4014c-7.38379 0 -13.4014 6.01855 -13.4014 13.4014c0 7.38379 6.01855 13.4014 13.4014 13.4014c7.32129 0 13.4023 -6.01855 13.4023 -13.4014zM322.327 250.322
c0 -23.4531 -13.4014 -44.9209 -38.2197 -59.626c-18.1172 -10.7334 -17.4355 -23.4521 -17.4355 -24.1348v-1.36523v-30.8369c0 -6.70117 -5.33594 -12.0371 -12.0371 -12.0371s-12.7188 5.33594 -12.7188 12.0371v30.1543
c-0.682617 10.7334 4.71484 31.5195 28.7891 46.2236c12.0371 7.38379 26.1211 20.1035 26.1211 38.8408c0 22.7705 -18.7373 41.5703 -41.5703 41.5703s-41.5713 -18.7373 -41.5713 -41.5703c0 -6.70117 -5.33594 -12.0371 -12.0371 -12.0371
s-12.0371 5.33594 -12.0371 12.0371c0 36.8555 29.4717 66.3271 66.3271 66.3271s66.3896 -28.7275 66.3896 -65.583z" />
    <glyph glyph-name="uniF10A" unicode="&#xf10a;" 
d="M419.337 383.423c17.2246 0 31.3125 -14.0869 31.9639 -31.9043v-31.9629c0 -15.3311 -11.543 -28.1152 -26.873 -30.6611v-311.343c0 -23.0254 -18.5273 -41.5518 -41.5518 -41.5518h-253.751c-23.0254 0 -41.5518 18.5264 -41.5518 41.5518v311.936
c-15.3896 1.89453 -26.873 14.6787 -26.873 30.6611v31.9629c0 17.2246 14.0283 31.3115 31.3125 31.3115h88.8447c5.14941 36.4619 36.4619 64.5771 74.166 64.5771s68.4248 -28.1152 74.166 -64.5771h90.1475zM255.023 424.324
c-24.9189 0 -45.3994 -17.876 -50.4902 -40.9014h100.329c-4.43945 23.6172 -24.9189 40.9014 -49.8389 40.9014zM400.159 -23.1592h-0.59082v311.345h-288.97v-311.345c0 -10.1807 8.28613 -17.875 17.875 -17.875h253.81c10.1816 0 17.876 8.28613 17.876 17.875z
M426.973 320.148h-0.651367v31.9629c0 4.49805 -3.19629 7.69531 -7.69434 7.69531h-326.674c-4.49902 0 -7.69531 -3.19727 -7.69531 -7.69531v-31.9629c0 -4.49902 3.19629 -7.69531 7.69531 -7.69531h327.324c4.49902 0 7.69531 3.19629 7.69531 7.69531z
M163.633 20.3467v201.959c0 6.3916 5.08984 11.4824 11.4834 11.4824c6.39258 0 11.4824 -5.08984 11.4824 -11.4824v-201.959c0 -6.39258 -5.08984 -11.4834 -11.4824 -11.4834c-6.39258 -0.709961 -11.4834 5.09082 -11.4834 11.4834zM244.784 20.3467v201.959
c0 6.3916 5.08984 11.4824 11.4824 11.4824s11.4834 -5.08984 11.4834 -11.4824v-201.959c0 -6.39258 -5.08984 -11.4834 -11.4834 -11.4834c-6.33398 -0.709961 -11.4824 5.09082 -11.4824 11.4834zM325.993 20.3467v201.959c0 6.3916 5.08984 11.4824 11.4834 11.4824
c6.39258 0 11.4834 -5.08984 11.4834 -11.4824v-201.959c0 -6.39258 -5.09082 -11.4834 -11.4834 -11.4834c-5.74121 -0.709961 -11.4834 5.09082 -11.4834 11.4834z" />
    <glyph glyph-name="uniF123" unicode="&#xf123;" 
d="M512 166.396c0 -25.252 -15.7822 -46.1201 -37.2939 -54.3037v-88.3232c0 -13.8545 -11.3398 -24.6094 -24.6094 -24.6094h-407.191c-23.9658 0 -42.9053 19.5234 -42.9053 42.9053v268.947c0 1.28613 0 2.51367 0.643555 3.7998v20.8096
c-0.643555 1.87012 -0.643555 3.7998 -0.643555 6.3125c0 3.15723 0 5.6709 0.643555 8.18359v0c3.7998 19.582 20.8682 34.7217 41.6777 34.7217h347.86c13.2109 0 27.123 -9.46973 27.123 -26.5381v-36.0078h32.208c13.8535 0 24.6094 -11.3398 24.6094 -24.6094v-76.9844
c22.0957 -8.24219 37.8779 -29.0518 37.8779 -54.3037zM42.3213 361.459c-9.46973 0 -17.0693 -6.95703 -18.4727 -15.665v-0.643555v0c-0.642578 -1.28516 -0.642578 -1.87012 -0.642578 -3.15625s0.642578 -1.87012 0.642578 -3.15625v0
c0 -1.28613 0 -1.87109 0.643555 -3.15625v0c0.642578 -1.22754 0.642578 -1.87012 1.28613 -2.51367l0.643555 -0.643555c0.642578 -0.583984 0.642578 -1.22656 1.28516 -1.87012c0 -0.642578 0 -0.642578 0.643555 -1.28613l1.28613 -1.28613
c0.642578 -0.642578 0.642578 -0.642578 1.28613 -1.28516c0.642578 -0.642578 0.642578 -1.28613 1.28516 -1.28613c0.584961 0 1.22754 -0.643555 1.87109 -0.643555c0.642578 0 0.642578 -0.643555 1.28613 -0.643555c0.583984 0 1.22656 -0.642578 1.87012 -0.642578
c0.642578 -0.643555 0.642578 -0.643555 1.28613 -0.643555c1.28613 -0.643555 2.51367 -0.643555 3.7998 -0.643555h287.244h28.4092h36.0068v36.0078c0 1.87109 0 3.15723 -3.7998 3.15723h-347.86zM450.74 23.0674l0.0585938 -0.000976562v85.6934h-56.8184
c-32.208 0 -58.1035 25.8955 -58.1035 58.1035v0v0c0 32.209 25.8955 58.1035 58.1035 58.1035h56.8174v73.2432c0 0.642578 -0.642578 1.28613 -1.28613 1.28613h-44.1914h-46.7041h-0.643555h-28.4082h-1.28613h-285.373h-5.02734h-1.28613
c-1.28516 0 -1.87012 0.642578 -3.15625 0.642578c-0.584961 0.643555 -1.22754 0.643555 -1.87012 0.643555c-1.28613 0 -2.51367 0 -3.15723 0.643555c-0.584961 0 -1.22656 0.643555 -1.87012 0.643555c-0.642578 0.642578 -1.87012 0.642578 -2.51367 1.28613
c-0.642578 0.642578 -0.642578 0.642578 -1.28516 0.642578v-262.634c0 -10.7559 8.82617 -19.582 19.582 -19.582h407.133c0.642578 0 1.28613 0.641602 1.28613 1.28516zM460.209 132.318c16.4258 3.15625 28.4092 17.0664 28.4092 34.0771
s-11.9834 30.9229 -28.4092 34.0791v0c-1.87012 0.643555 -4.44238 0.643555 -6.3125 0.643555h-59.9746c-18.9385 0 -34.7217 -15.7822 -34.7217 -34.7217c0 -18.9385 15.7832 -34.7217 34.7217 -34.7217h59.9746c1.87012 0 3.79883 0 6.3125 0.643555v0zM415.434 166.396
c0 -6.95605 -5.66992 -12.626 -12.626 -12.626s-12.626 5.66992 -12.626 12.626s5.66992 12.626 12.626 12.626s12.626 -5.66992 12.626 -12.626z" />
    <glyph glyph-name="uniF14E" unicode="&#xf14e;" 
d="M447.927 322.427c24.0273 0 43.5537 -18.9414 43.5537 -42.9697v-179.942c0 -23.9688 -19.584 -43.5537 -43.5527 -43.5537h-30.9258v-95.3486c0 -13.2705 -10.6992 -24.6123 -24.6123 -24.6123h-270.849c-13.2715 0 -24.6123 10.6992 -24.6123 24.6123v95.3496h-32.8555
c-23.9688 0 -43.5527 19.584 -43.5527 43.5537v179.941c0 23.9697 19.584 43.5537 43.5527 43.5537h32.8555v0.643555v100.377c0 13.2119 10.6973 23.9688 23.9688 23.9688h272.135c13.2129 0 23.9688 -10.6982 23.9688 -23.9688v-100.961v-0.643555h30.9258z
M120.254 323.654c0 -0.643555 0.643555 -1.22754 0.643555 -0.643555h272.135s0.643555 0 0.643555 0.643555v100.377s0 0.643555 -0.643555 0.643555h-272.135s-0.643555 0 -0.643555 -0.643555v-100.377zM393.617 -38.7451l0.0576172 0.000976562v106.048v78.9219
c0 0.642578 -0.642578 1.28613 -1.28613 1.28613h-270.849c-0.642578 0 -1.28613 -0.642578 -1.28613 -1.28613v-78.2793v-106.691c0 -0.642578 0.642578 -1.28613 1.28613 -1.28613h270.791c0.642578 0 1.28613 0.642578 1.28613 1.28613zM468.154 99.5156v0
l0.0585938 179.941c0 11.4004 -8.88672 20.2285 -20.2275 20.2285h-54.9531h-272.135h-56.8242c-11.4004 0 -20.2275 -8.88672 -20.2275 -20.2285v-179.941c0 -11.4004 8.88574 -20.2285 20.2275 -20.2285h32.8545v66.9385c0 13.2705 10.6982 24.6123 24.6123 24.6123
h270.849c13.2715 0 24.6123 -10.6992 24.6123 -24.6123v-66.9385h30.9258c11.4004 0 20.2275 8.88672 20.2275 20.2285zM432.143 252.332c0 -6.95703 -5.6709 -12.6279 -12.6279 -12.6279s-12.627 5.6709 -12.627 12.6279c0 6.95605 5.66992 12.627 12.627 12.627
s12.6279 -5.6709 12.6279 -12.627zM385.432 252.332c0 -6.95703 -5.66992 -12.6279 -12.627 -12.6279s-12.6279 5.6709 -12.6279 12.6279c0 6.95605 5.6709 12.627 12.6279 12.627s12.627 -5.6709 12.627 -12.627zM351.993 19.3652
c0 -6.31445 -5.02734 -11.3418 -11.3418 -11.3418h-164.859c-6.31445 0 -11.3418 5.02734 -11.3418 11.3418c0 6.31348 5.02734 11.3408 11.3418 11.3408h164.801c6.31348 0 11.4004 -5.02734 11.4004 -11.3408zM351.993 88.1738
c0 -6.31445 -5.02734 -11.3418 -11.3418 -11.3418h-164.859c-6.31445 0 -11.3418 5.02734 -11.3418 11.3418s5.02734 11.3418 11.3418 11.3418h164.801c6.31348 0.642578 11.4004 -5.02832 11.4004 -11.3418z" />
    <glyph glyph-name="uniF11D" unicode="&#xf11d;" 
d="M256 447.969c141.402 0 256 -114.536 256 -255.938c0 -141.402 -114.598 -256 -256 -256s-256 114.536 -256 255.938c0 141.402 114.598 256 256 256zM256 -39.2129c128 0 231.182 103.864 231.182 231.182c0 127.318 -103.864 231.183 -231.182 231.183
s-231.182 -103.864 -231.182 -231.183c0 -127.317 103.864 -231.182 231.182 -231.182zM355.831 209.403c8.74902 -6.7002 10.0518 -14.7666 9.30762 -17.9932c-0.621094 -8.06641 -5.33691 -15.4492 -15.3877 -20.7852l-136.004 -78.4258
c-4.71582 -2.66699 -9.36914 -4.03223 -14.085 -4.03223c-10.0508 0 -19.4199 7.38281 -20.1025 23.4531v160.822c0 16.0693 10.0518 23.4521 19.4209 23.4521c4.71484 0 8.68555 -1.36426 13.4014 -4.03223l142.084 -81.7764
c0.682617 0 0.682617 -0.682617 1.36523 -0.682617zM204.378 114.908l132.033 76.4404l-132.033 76.3779v-152.818z" />
    <glyph glyph-name="uniF140" unicode="&#xf140;" 
d="M432.295 303.412c6.33496 -29.584 4.89844 -60.6045 -4.89746 -91.624c-19.0693 -60.6699 -50.0898 -115.004 -75.4941 -155.886c-22.5967 -35.9834 -46.5635 -71.9023 -74.7754 -108.604c-7.77148 -9.20898 -16.1953 -11.2979 -21.1592 -11.2979
c-7.05371 0 -14.1055 2.80762 -19.0693 9.14258l-0.71875 0.717773l-2.08887 2.80859v0.717773c-9.86133 12.6699 -19.0693 25.4043 -28.2129 38.0732c-41.5996 59.2334 -71.9668 109.322 -95.2158 158.694c-11.9512 24.6855 -24.6855 54.334 -31.0205 86.0732
c-9.92676 47.9346 0 95.8691 26.7754 136.098c26.8408 40.1631 67.0029 67.0049 114.285 76.1475c12.0166 2.08984 23.9678 3.52637 35.9834 3.52637c85.3555 0 157.976 -59.2324 175.608 -144.588zM401.928 219.494c8.49023 26.8408 10.5801 53.6162 4.89941 78.9541
c-15.4775 73.3389 -76.8652 124.147 -150.204 124.147c-10.5801 0 -20.4414 -0.71875 -31.0205 -2.80859c-40.1631 -7.77051 -75.4287 -31.0859 -98.0244 -64.9141c-22.5967 -33.8281 -31.0859 -75.4932 -22.5967 -116.375
c5.68164 -29.583 17.6328 -57.1426 28.9307 -80.3916c22.5967 -47.9346 52.2451 -96.5879 93.127 -154.449c9.14258 -12.6689 18.3506 -25.4043 27.4932 -38.0732v0c0.71875 0 0.71875 -0.71875 0.71875 -0.71875l0.71875 -1.43652
c0.717773 0 0.717773 0.71875 0.717773 0.71875c26.7754 35.9834 50.7422 70.5303 72.6201 105.796c23.9668 39.5098 54.2695 91.6895 72.6201 149.551zM254.532 353.502c45.8447 0 83.2002 -37.3545 83.2002 -83.2002s-37.3555 -83.2002 -83.2002 -83.2002
c-45.8457 0 -83.2002 37.3545 -83.2002 83.2002s37.3555 83.2002 83.2002 83.2002zM254.532 213.159c31.7383 0 57.1426 25.4043 57.1426 57.1436c0 31.7383 -25.4033 57.1426 -57.1426 57.1426s-57.1436 -25.4043 -57.1436 -57.1426
c0 -31.7393 25.4043 -57.1436 57.1436 -57.1436z" />
    <glyph glyph-name="uniF15C" unicode="&#xf15c;" 
d="M451.997 204.089h-0.649414v-65.2041v-1.8916v-1.8916v-65.1455v-1.8916v-1.8916v-65.0273c0 -36.415 -50.4258 -65.1445 -114.271 -65.1445c-63.8457 0 -114.271 28.7295 -114.271 65.1445v49.7754c-14.7197 -3.8418 -31.2725 -5.73438 -48.5342 -5.73438
c-63.8447 0 -114.271 28.7305 -114.271 65.1455v65.7363v1.8916v1.8916v65.1455v1.8916v1.8916v65.1455v1.8916v1.8916v65.1455c0 36.415 50.4258 65.1455 114.921 65.1455c63.8447 0 114.271 -28.7305 114.271 -65.1455v-66.4463v-1.8916v-1.8916v-49.7754
c14.7197 4.49316 30.6807 6.38477 48.5332 6.38477c63.8457 0 114.271 -28.7305 114.271 -65.1455zM90.0332 338.163c-1.95117 1.24121 -3.84277 2.54199 -4.31543 3.84277c-0.650391 0 -1.30078 0.650391 -1.30078 0.650391v-24.8877
c0 -19.8047 37.0059 -41.5 90.6836 -41.5c53.6768 0 90.6836 21.6963 90.6836 41.5v24.8877c-0.650391 0 -1.30176 -0.650391 -1.30176 -0.650391c-1.8916 -1.30078 -3.8418 -2.54199 -5.7334 -3.84277c-0.650391 0 -1.8916 -0.650391 -2.54199 -1.30078
c-3.19238 -1.30078 -5.73438 -3.19141 -8.92676 -4.49219v0c-3.19141 -1.30078 -6.38477 -2.54199 -9.57617 -3.84277c-0.650391 -0.650391 -1.8916 -0.650391 -3.19238 -1.30078c-2.54199 -1.24121 -4.49219 -1.8916 -7.03516 -2.54199
c-1.9502 -0.650391 -3.19141 -0.650391 -4.49219 -1.30078c-2.54199 -0.59082 -4.49316 -1.24121 -7.03516 -1.8916c-1.30078 0 -3.19238 -0.650391 -4.49316 -0.650391c-2.60059 -0.650391 -5.14258 -0.650391 -7.68457 -1.30176
c-1.30078 0 -3.19141 -0.650391 -4.49316 -0.650391c-2.54199 0 -5.7334 -0.650391 -8.27637 -0.650391c-1.2998 -0.650391 -2.54102 -0.650391 -3.8418 -0.650391c-3.84277 -0.650391 -8.27637 -0.650391 -12.7695 -0.650391
c-4.49219 0 -8.27637 0.650391 -12.7686 0.650391c-1.30078 0.650391 -2.54199 0.650391 -3.84277 0.650391c-2.54199 0 -5.73438 0 -8.27637 0.650391c-1.30078 0 -3.19141 0.650391 -4.49219 0.650391c-2.60156 0.651367 -5.14258 0.651367 -7.68555 1.30176
c-1.30078 0 -3.19141 0 -4.49219 0.650391c-2.54199 0.59082 -4.49316 1.24121 -7.03516 1.8916c-1.95117 0.650391 -3.19238 0.650391 -4.49316 1.30078c-2.54199 1.24121 -4.49219 1.8916 -7.03516 2.54199c-0.649414 0.650391 -1.89062 0.650391 -3.19141 1.30078
c-3.19238 1.2998 -6.38477 2.54199 -9.57715 3.84277v0c-3.19141 1.30078 -6.38379 2.60059 -8.92578 4.49219c-0.650391 0 -1.8916 0.650391 -2.54199 1.30078zM284.76 146.629c-2.60156 0.591797 -5.14355 1.24121 -5.55566 3.36914
c-1.30078 0.650391 -1.8916 0.650391 -3.19238 1.30078c-1.30078 0.59082 -3.19141 1.24121 -4.49219 1.8916c-0.59082 0 -1.24121 0.650391 -1.89258 0.650391v0c-3.19238 1.2998 -5.7334 2.54199 -8.27539 3.84277c-0.650391 0 -0.650391 0.650391 -1.30176 0.650391
h-0.650391c-1.2998 0.59082 -1.89062 1.24121 -3.19141 1.8916v0c-1.30078 0.59082 -1.8916 1.24121 -3.19238 1.8916v0c-0.650391 0 -0.650391 0.650391 -1.30078 0.650391h-0.650391v0c-1.2998 1.24121 -1.89062 1.8916 -3.19141 2.54199v-26.8379v0v-1.8916v-0.650391
c2.54199 -9.57715 14.0098 -19.8037 31.2725 -26.8389c0 -0.650391 0.650391 -0.650391 0.650391 -0.650391c15.3701 -6.38477 35.7646 -10.2266 58.7607 -10.2266c53.6768 0 90.6836 21.6953 90.6836 41.499v24.8877c-0.651367 0 -1.30176 -0.650391 -1.30176 -0.650391
c-1.8916 -1.2998 -3.8418 -2.54199 -5.7334 -3.84277c-0.650391 0 -1.89258 -0.650391 -2.54297 -1.30078c-3.19238 -1.30078 -5.73438 -3.19141 -8.92676 -4.49219v0c-3.19141 -1.30078 -6.38379 -2.54199 -9.57617 -3.84277
c-0.650391 -0.650391 -1.8916 -0.650391 -3.19238 -1.30078c-2.54199 -1.24121 -4.49316 -1.8916 -7.03516 -2.54199c-1.9502 -0.650391 -3.19141 -0.650391 -4.49316 -1.30078c-2.54199 -0.59082 -4.49219 -1.24121 -7.03418 -1.8916
c-1.30078 0 -3.19336 -0.650391 -4.49316 -0.650391c-2.60059 -0.650391 -5.14258 -0.650391 -7.68457 -1.30078c-1.30078 0 -3.19238 -0.650391 -4.49316 -0.650391c-2.54199 0 -5.73438 -0.650391 -8.27637 -0.650391
c-1.2998 -0.651367 -2.54199 -0.651367 -3.8418 -0.651367c-3.84277 -0.650391 -8.27637 -0.650391 -12.7695 -0.650391s-8.27637 0.650391 -12.7695 0.650391c-1.2998 0.651367 -2.54199 0.651367 -3.8418 0.651367c-2.54199 0 -5.73438 0 -8.27637 0.650391
c-1.30078 0 -3.19238 0.650391 -4.49316 0.650391c-2.60059 0.650391 -5.14258 0.650391 -7.68457 1.30078c-1.30078 0 -3.19238 0 -4.49316 0.650391c-2.54199 0.59082 -4.49219 1.24121 -7.03418 1.8916c-1.95117 0.650391 -3.19238 0.650391 -4.49316 1.30078z
M223.457 144.678v0v40.1992c-14.7197 -3.84277 -31.2715 -5.73438 -48.5332 -5.73438c-37.0654 0 -69.6387 9.57715 -90.6836 24.8877v-24.8877c0 -19.8037 37.0654 -41.499 90.6826 -41.499c17.2617 0 33.873 2.54199 48.5342 7.03418zM428.41 70.0156v24.8867
c-20.4541 -15.3115 -53.0273 -24.8877 -90.6836 -24.8877c-26.1885 0 -49.1836 5.08398 -68.3379 12.7695c-0.59082 0 -1.24121 0.650391 -1.8916 0.650391c-1.2998 0 -1.8916 0.650391 -3.19238 1.30078v0c-6.38379 3.19141 -12.1777 6.38379 -17.2617 10.2266v-26.8389v0
c1.95117 -19.1533 38.957 -39.6074 90.6836 -39.6074c53.6768 0 90.6836 21.6963 90.6836 41.5zM231.733 229.627c0 0 0.649414 0 -0.0595703 1.24121c7.03516 9.57715 18.5625 18.5039 33.2236 24.8877v17.8535c-20.4551 -15.3115 -53.6182 -24.8887 -90.6836 -24.8887
s-69.6387 9.57812 -90.6836 24.8887v-24.8877c0 -19.8037 37.0645 -41.499 90.6826 -41.499c17.8535 0 35.1143 2.60059 49.7754 7.68457c0 0.650391 0.650391 0.650391 0.650391 1.30078c0.650391 0.649414 0.650391 1.8916 1.30078 3.19238
c0 0.649414 0.650391 1.89062 1.30078 3.19141c0.650391 1.24121 0.650391 1.8916 1.30078 2.54199c1.30078 1.30078 1.8916 3.19238 3.19238 4.49316zM428.41 204.089c0 19.7451 -37.0654 41.5 -90.0947 40.2002c-22.3457 0 -40.8486 -3.84277 -56.1592 -9.57617h-0.650391
c-18.5039 -7.03516 -30.6221 -16.6113 -33.8145 -26.8389v0c-0.650391 -1.9502 -0.650391 -3.19141 -0.650391 -4.49316v0v0v-1.30078v0v0c0 -2.54199 0.59082 -4.49219 1.8916 -7.03418v0c0.650391 -0.591797 0.650391 -1.24219 1.30078 -1.89258
c0.650391 -0.59082 0.650391 -1.24121 1.30078 -1.8916v0v0c0 -0.59082 0.650391 -1.24121 1.30176 -1.8916l1.8916 -1.8916v0v0v0c0.59082 0 1.24121 -0.650391 1.8916 -1.30078v0l1.8916 -1.8916v0h0.650391v0c1.2998 -1.30078 2.54199 -2.54199 3.84277 -3.19238
h0.650391c0 -0.650391 0.650391 -0.650391 0.650391 -0.650391v0c0.650391 0 1.24121 -0.59082 2.54199 -1.8916l2.54199 -1.30078h0.650391c0 -0.650391 0.650391 -0.650391 0.650391 -0.650391v0v0v0c1.8916 -0.650391 3.84277 -1.8916 5.73438 -2.54199v0
c15.3105 -6.97559 36.415 -11.4688 61.3027 -11.4688c53.6768 0 90.6836 21.6963 90.6836 41.499zM174.272 424.354c-53.6182 0 -90.624 -22.3457 -90.6836 -41.499c0 -19.8047 37.0068 -41.5 90.6836 -41.5s90.6836 21.6953 90.6836 41.5
c0 19.8037 -37.0654 41.499 -90.6836 41.499zM83.6484 110.214c0 -19.8037 37.0059 -41.499 90.6826 -42.1494c17.2617 0 33.873 2.54199 48.5342 7.03418v40.8496c-14.7197 -3.84277 -31.2715 -5.73438 -48.5342 -5.73438c-37.0645 0 -69.6377 9.57715 -90.6826 24.8877
v-24.8877zM428.41 1.02734v24.8877c-20.4541 -15.3105 -53.6172 -24.8877 -90.6836 -24.8877s-69.6387 9.57715 -90.6836 24.8877v-24.8877c0 -19.8037 37.0068 -41.499 90.6836 -41.499s90.6836 21.6963 90.6836 41.499z" />
    <glyph glyph-name="uniF12A" unicode="&#xf12a;" 
d="M95.2666 188.224c0 -7.55273 -6.15625 -13.709 -13.71 -13.709c-7.55273 0 -13.709 6.15625 -13.709 13.709c0 7.55371 6.15625 13.71 13.709 13.71c7.55371 0 13.71 -6.15723 13.71 -13.71zM512 192.349v-129.538c0 -31.5439 -16.4375 -52.8066 -23.293 -60.2949
l-28.8145 -30.1475c-19.167 -20.5635 -46.5859 -21.2617 -52.1074 -21.2617v0h-161.02c-37.0029 0 -58.2646 18.5332 -63.7227 23.9912l-22.5947 23.293v-2.03125c0 -24.6895 -19.8662 -43.8564 -43.8564 -43.8564h-72.7354
c-24.6895 -0.000976562 -43.8564 19.8643 -43.8564 43.8555v226.138c0 24.6895 19.8662 43.8564 43.8564 43.8564h71.9736c22.5947 0 41.1279 -16.4375 43.8564 -38.3975l85.6836 89.1094l26.0215 94.5684c2.03125 8.25098 10.2822 21.2617 26.0225 21.2617h45.9512
c13.71 0 23.293 -8.25 24.6895 -21.96v-1.39648v-150.801v-2.72949h74.7031c8.88574 -0.697266 23.9902 -3.42676 38.3975 -18.5332l18.5332 -19.167c6.85449 -7.55273 10.9805 -16.4385 11.6777 -26.7197c0.633789 1.45898 0.633789 0.760742 0.633789 0.760742z
M134.997 -3.70508v29.4492c-0.697266 1.39648 -0.697266 3.42676 -0.697266 4.82324l0.697266 166.542v0.697266v24.6895c0 10.2822 -8.25 18.5332 -18.5332 18.5332h-72.6074c-10.2822 0 -18.5332 -8.25098 -18.5332 -18.5332v-226.201
c0 -10.2822 8.25098 -18.5332 18.5332 -18.5332h71.9736c10.9805 0.0634766 19.167 8.25195 19.167 18.5332zM486.677 191.651c-0.698242 4.12598 -2.03125 7.55273 -4.82422 10.9795l-18.5332 19.168c-8.25 8.25 -16.4375 10.2822 -20.5635 10.2822h-76.7969h-2.03125
c-10.2822 1.39648 -20.5635 9.58301 -20.5635 28.1162v148.072h-45.1895c-0.697266 0 -1.39648 -2.03125 -1.39648 -2.72949l-27.418 -97.3613c-0.697266 -2.03027 -1.39648 -4.12598 -3.42676 -5.45801l-105.549 -110.372v-157.655l40.4297 -42.5234
c2.72949 -2.72949 17.834 -16.4395 45.9512 -16.4395h161.781c2.03027 0 21.2617 0.698242 34.2725 13.71l28.1172 29.4492c3.42676 4.12598 16.4375 19.8662 16.4375 43.1592v129.603h-0.697266z" />
    <glyph glyph-name="uniF103" unicode="&#xf103;" 
d="M395.339 191.958l96.3926 -95.4736c26.1211 -27.0391 26.1211 -69.4346 0 -95.5566l-44.1475 -44.1475c-12.6025 -12.6846 -29.7109 -19.8623 -47.7373 -19.8623c-18.0273 0 -35.1348 7.26074 -47.7373 19.8623l-95.5557 95.5566l-96.4746 -96.4746
c-12.6025 -12.6846 -29.7109 -19.8623 -47.7373 -19.8623s-35.1348 7.25977 -47.7363 19.8623l-44.1484 44.1475c-12.6855 12.6025 -19.8623 29.7109 -19.8623 47.7373s7.26074 35.1357 19.8623 47.7363l96.3916 96.4746l-96.3916 96.4746
c-12.6855 12.6025 -19.8623 29.7109 -19.8623 47.7373c0 18.0254 7.26074 35.2178 18.9443 46.9023l44.2314 44.1475c12.6025 12.6846 29.7109 19.8623 47.7373 19.8623c18.0254 0 35.1338 -7.26074 47.7354 -19.8623l96.3916 -96.4746l96.5576 97.3926
c12.6025 12.6846 29.7109 19.8623 47.7373 19.8623s35.1338 -7.26074 47.7363 -19.8633l44.1475 -44.1475c26.1221 -27.0391 26.1221 -69.4346 0 -95.5566zM467.445 24.2959c13.5195 12.6016 13.5195 34.3008 0 48.6543l-108.159 108.326
c-2.66992 2.6709 -4.50586 7.17676 -4.50586 11.6836s1.83594 9.01367 4.50586 11.6836l108.159 108.158c13.5195 12.6025 13.5195 34.2168 0 47.7363l-44.3145 44.1484c-12.6025 12.6016 -35.1348 12.6016 -47.7373 0l-108.158 -108.158
c-2.6709 -2.66992 -7.17676 -4.50684 -11.6836 -4.50684s-9.01367 1.83691 -11.6836 4.50684l-108.159 108.157c-12.6016 12.6016 -35.1348 12.6016 -47.7363 0l-44.1484 -44.1475c-6.34277 -6.34277 -9.93066 -15.3564 -9.93066 -24.3691
s3.67188 -18.0264 10.8496 -23.4512l108.158 -108.158c6.34277 -6.3418 6.34277 -17.1074 0 -23.4502l-108.075 -108.075c-6.34277 -6.34277 -9.93066 -15.3564 -9.93066 -24.3691s3.58789 -18.0264 9.93066 -24.3691l44.1475 -44.1475
c12.6025 -12.6025 35.1348 -12.6025 47.7373 0l108.241 108.158c3.58887 2.66992 7.17773 4.50586 11.6836 4.50586c4.50684 0 8.0957 -0.917969 11.6846 -4.50586l108.157 -108.158c12.6025 -12.6025 35.1348 -12.6025 47.7373 0z" />
    <glyph glyph-name="uniF151" unicode="&#xf151;" 
d="M256 448c141.23 0 255.69 -115.079 255.69 -256.31c0 -141.231 -114.46 -255.69 -255.69 -255.69s-255.69 115.079 -255.69 256.31c0 141.231 114.46 255.69 255.69 255.69zM256 -39.2119c127.164 0 230.902 104.42 230.902 231.584
c0 127.163 -103.738 230.901 -230.902 230.901s-230.902 -104.42 -230.902 -231.583c0 -127.164 103.738 -230.902 230.902 -230.902zM375.107 186.36c0 0 0 -0.681641 -0.681641 -0.681641c-0.682617 -0.681641 -0.682617 -1.36328 -1.36426 -1.9834l-92.335 -92.3359
c-2.66504 -2.66406 -5.33008 -3.3457 -8.67578 -3.3457c-3.34668 0 -6.01172 1.36328 -8.67578 3.3457c-4.70996 4.70996 -4.70996 12.7041 0 17.4141l70.9561 70.957h-196.138c-6.69238 0 -12.0225 5.3291 -12.0225 12.0225c0 6.69238 5.33008 12.0225 12.0225 12.0225
h196.075l-70.2129 70.2129c-4.70996 4.70898 -4.70996 12.7031 0 17.4141c4.70996 4.70898 12.7041 4.70898 17.4141 0l90.9727 -91.0352c0.681641 -0.681641 1.36426 -1.36328 1.36426 -1.9834l0.681641 -0.681641c0 -0.681641 0.681641 -0.681641 0.681641 -1.36328
s0 -0.681641 0.681641 -1.36328v-1.36426v-4.70898v-1.36328c-0.0625 -0.558594 -0.0625 -0.558594 -0.744141 -1.17871v0z" />
    <glyph glyph-name="uniF14F" unicode="&#xf14f;" 
d="M93.2256 218.937h-0.69043h-62.2891c-2.69531 0 -14.2246 0.689453 -20.9932 10.1514c-2.69531 4.07324 -6.07812 10.8418 -3.38379 20.3037c22.998 89.9883 77.1416 151.589 160.425 181.354c101.519 36.5352 195.58 14.916 275.479 -63.6055l33.8398 32.4609
c2.69434 2.00586 8.77344 7.45703 16.2295 7.45703c6.0791 0 16.2305 -4.07324 16.2305 -18.9248v-147.516c0 -10.8408 -7.45703 -19.6143 -18.9248 -21.6826h-2.69531h-146.199h-1.37793c-3.38379 0.689453 -14.2256 2.00586 -17.6094 12.1572
c-1.37891 4.07324 -2.69531 11.5312 5.38867 19.6143l35.8447 36.5352c-32.46 35.2178 -71.752 51.4482 -116.433 48.0645c-61.6006 -5.38867 -102.897 -36.5342 -125.896 -96.1289c-6.64258 -15.541 -18.1104 -20.2412 -26.9463 -20.2412zM30.998 243.94v0h62.29
c0.689453 0 2.00488 0.689453 4.07324 4.07324c26.3818 67.6787 76.4521 105.592 146.889 110.981c56.8379 4.7627 106.281 -17.6104 145.51 -65.6748c4.07324 -4.7627 3.38379 -12.1572 -0.689453 -16.9199l-33.1504 -33.1494h126.586v128.653l-31.835 -31.1455
c-2.69434 -2.00488 -6.07812 -3.38379 -8.77344 -3.38379c-3.38379 0 -6.76758 1.37891 -8.77344 4.07324c-75.2607 78.458 -162.554 100.829 -257.994 66.3008c-75.1367 -27.0713 -123.201 -82.5938 -144.132 -163.809zM252.271 -64
c-65.6748 0 -126.586 27.0713 -182.045 81.2148l-33.8398 -32.4609c-2.69434 -2.00488 -8.77344 -7.45703 -16.2295 -7.45703v0c-6.0791 0 -16.2305 4.07324 -16.2305 18.9248v146.889c0 10.8418 7.45703 19.6152 18.9248 21.6826h2.69531h145.51h1.37793
c3.38379 -0.689453 14.2256 -2.00488 17.6094 -12.1562c1.37891 -4.07422 2.69531 -11.5312 -5.38867 -19.6152l-35.8447 -36.5342c32.46 -35.2188 71.752 -51.4482 116.433 -48.0654c61.6006 5.38965 102.897 36.5342 125.896 96.1299c0 0 0 0.689453 0.689453 0.689453
c6.0791 14.2246 18.2988 18.9248 26.3828 18.9248h62.916c2.69531 0 14.2246 -0.689453 20.9932 -10.1514c2.69531 -4.07324 6.07812 -10.8418 3.38379 -20.3037c-22.998 -90.6777 -76.4521 -151.589 -159.735 -182.044c-31.207 -10.2158 -63.041 -15.667 -93.4971 -15.667z
M70.916 47.0439v0c3.38379 0 6.76855 -1.37793 8.77344 -4.07324c75.1367 -78.5195 162.43 -100.829 257.87 -66.3633c74.4473 27.0723 123.201 81.9043 144.132 163.81v0h-62.29s-2.00488 -0.69043 -3.38281 -4.07324v0
c-27.0723 -67.6797 -76.4521 -104.903 -146.89 -110.981c-56.8379 -4.7627 -106.281 17.6094 -145.51 65.6738c-4.07324 4.7627 -3.38379 12.1572 0.689453 16.9199l33.1504 33.1504h-126.586v-127.901l31.834 31.1445c2.13086 1.31641 4.82617 2.69434 8.20898 2.69434z
" />
    <glyph glyph-name="uniF129" unicode="&#xf129;" 
d="M256 448c141.23 0 255.69 -115.079 255.69 -256.31c0 -140.55 -114.46 -255.69 -255.69 -255.69s-255.69 115.079 -255.69 256.31c0 141.231 114.46 255.69 255.69 255.69zM256 -39.2119c127.164 0 230.902 103.057 230.902 230.902
c0 127.845 -103.738 231.583 -230.902 231.583s-230.902 -104.42 -230.902 -231.583c0 -127.164 103.738 -230.902 230.902 -230.902zM268.703 87.2695c0 -7.37402 -6.01074 -13.3848 -13.3848 -13.3848c-7.375 0 -13.3857 6.01172 -13.3857 13.3848
c0 7.375 6.01172 13.3857 13.3857 13.3857s13.3848 -6.01172 13.3848 -13.3857zM242.614 152.896v150.589c0 6.69238 5.33008 12.0225 12.0234 12.0225c6.69238 0 12.0225 -5.33008 12.0225 -12.0225v-150.589c0 -6.69336 -5.33008 -12.0225 -12.0225 -12.0225
c-6.69336 -0.743164 -12.0234 5.3291 -12.0234 12.0225z" />
    <glyph glyph-name="uniF132" unicode="&#xf132;" 
d="M256.389 270.948c44 0 80.2676 -35.6074 80.2676 -79.6084c0 -44 -36.2676 -79.6084 -80.2676 -79.6084s-79.6084 35.6084 -79.6084 79.6084c0 44.001 35.6084 79.6084 79.6084 79.6084zM256.389 134.991c31.0518 0 56.3486 25.2373 56.3486 56.3486
c0 31.1123 -25.2969 56.3496 -56.3486 56.3496c-31.1123 0 -56.3486 -25.2373 -56.3486 -56.3496c0 -31.1113 25.2969 -56.3486 56.3486 -56.3486zM500.429 202.97c6.47461 0 11.6895 -3.83691 11.5703 -10.3105c0 -6.47461 -5.15527 -11.6299 -11.6299 -11.6299h-35.6074
c-5.81543 -106.164 -90.6387 -190.987 -196.803 -196.803v-36.2676c0 -6.47363 -5.15527 -11.6289 -11.6299 -11.6289c-6.47363 0 -11.6299 5.15527 -11.6299 11.6289v36.2676c-105.504 5.81543 -190.328 90.6387 -196.143 196.144h-36.9268
c-6.47461 0 -11.6299 5.15527 -11.6299 11.6299c0 6.47363 5.15527 11.6289 11.6299 11.6289h36.9258c6.47461 104.906 90.6396 189.729 196.203 196.144v36.2676c0 6.47363 5.15527 11.6299 11.6299 11.6299s11.6299 -5.15625 11.6299 -11.6299v-36.2676
c105.505 -5.81445 190.987 -91.2979 196.802 -196.803h35.6084zM268.019 6.82715c92.6162 5.81445 167.069 79.6084 172.884 172.224h-36.9268c-6.47363 0 -11.6299 5.15527 -11.6299 11.6299s5.15625 11.6299 11.6299 11.6299h36.9268
c-5.875 92.6162 -80.3281 166.41 -172.884 172.225v-36.2676c0 -6.47363 -5.15527 -11.6299 -11.6299 -11.6299s-11.6299 5.15625 -11.6299 11.6299v36.2676c-92.6162 -5.81445 -166.41 -80.2676 -172.225 -172.224h35.6084c6.47363 0 11.6289 -5.15527 11.6289 -11.6299
s-5.15527 -11.6299 -11.6289 -11.6299h-35.6084c6.47461 -91.957 80.2676 -165.75 172.225 -172.225v36.2676c0 6.47363 5.15527 11.6299 11.6299 11.6299s11.6299 -5.15625 11.6299 -11.6299v-36.2676z" />
    <glyph glyph-name="uniF109" unicode="&#xf109;" 
d="M465.569 350.811c25.3936 0 46.4307 -20.4062 46.4297 -45.7998v-24.7637v-209.913c0 -29.1201 -23.502 -52.6211 -52.6211 -52.6211h-406.757c-29.1191 0 -52.6211 23.501 -52.6211 52.6211v250.096v1.26074c1.8916 13.6426 10.5479 44.5967 56.9785 44.5967h114.529
c0.630859 0 22.2988 -0.630859 42.7051 -15.4766h251.356zM489.071 305.011c0 12.3809 -10.4902 22.9287 -22.873 23.502h-227.224l19.7764 -19.834c5.61719 -5.55957 21.668 -17.3105 53.8828 -17.3105h176.438v13.6426zM489.071 70.3916v-0.115234h-0.516602v198.104
h-176.437c-39.666 0 -61.9072 16.1074 -69.3594 22.9287l-0.630859 0.630859l-34.6797 34.0498c-1.26074 1.8916 -2.52148 3.0957 -4.35547 4.35645v0c-15.4775 12.3809 -32.2148 13.0117 -32.2148 13.0117h-113.899c-21.0371 0 -32.2148 -8.02441 -34.0498 -23.501
v-249.466c0 -16.6797 13.5859 -29.6924 29.6924 -29.6924h406.758c16.6797 0 29.6924 13.585 29.6924 29.6924z" />
    <glyph glyph-name="uniF12D" unicode="&#xf12d;" 
d="M432.781 240.637c2.5166 -6.96484 0 -15.1592 -3.80469 -20.8359c-8.83789 -10.7686 -18.3193 -21.4795 -27.8008 -32.248l-213.041 -242.714c-1.87305 -2.5166 -3.74609 -5.67773 -8.19434 -6.96582c-2.5166 -1.22852 -5.67676 -1.87207 -8.19336 -1.87207v0
c-3.16113 0 -5.67773 1.22852 -8.19434 2.5166c-5.0332 3.16016 -9.48145 11.3535 -8.19336 18.3184c2.5752 10.0674 5.0918 20.8359 7.6084 30.3174l40.4434 156.737h-100.492h-3.16113c-2.5166 0 -3.80469 0 -5.67676 0.643555l-1.28809 0.644531
c-4.44824 1.28711 -11.4131 3.80371 -13.9297 10.7686c-1.93164 6.96484 0.584961 15.8018 5.0332 20.251c24.6406 27.7998 49.9248 55.0156 74.5645 82.1719l60.0498 65.7266c34.7656 38.5703 69.5312 76.4961 104.296 114.422l0.644531 1.28711
c2.5166 2.5166 6.96484 8.19434 15.1582 8.19434c3.16113 0 6.32129 -0.643555 9.48145 -2.51562c8.19434 -5.09277 10.126 -12.6426 6.32129 -23.4111l-0.644531 -1.28809l-53.084 -169.379h109.974h2.5166c2.5166 0 3.80469 0 5.67676 -0.643555h1.28809
c3.16016 -1.28809 10.126 -3.16113 12.6426 -10.126zM383.442 203.998c6.96484 8.19434 13.9287 15.8027 20.8936 23.9385h-107.457c-9.48047 0 -14.5732 3.80469 -17.0898 6.96582c-3.16016 5.09082 -4.44824 10.7686 -3.16016 17.0898v1.28711l48.0508 154.221
c-29.7324 -32.1904 -60.0498 -65.082 -89.7227 -97.9756l-60.0498 -65.7266c-22.123 -25.2842 -44.8906 -49.9248 -67.6572 -74.5645h97.3311c7.55078 -0.643555 13.8721 -3.80469 17.6758 -8.83789c3.16113 -3.80469 5.67773 -10.125 3.16113 -20.25l-40.4434 -157.382
c-0.584961 -2.5166 -1.22852 -4.44824 -1.87305 -6.96484z" />
    <glyph glyph-name="uniF106" unicode="&#xf106;" 
d="M511.389 147.178c5.08691 -40.4072 -22.1035 -79.5859 -61.8672 -89.1172c-6.31445 -1.87109 -12.6309 -2.51465 -20.2324 -2.51465h-100.404h-181.277h-76.4287c-29.7061 0 -52.4531 14.502 -64.4414 41.0498c-11.4023 25.9053 -8.24414 51.167 8.83105 73.2715
c11.3438 14.502 27.1328 22.748 46.7227 25.2617c1.22754 0.643555 3.15723 0.643555 5.02832 0.643555h1.28613v1.28613v5.67188c3.15918 35.3789 18.3037 65.7275 44.209 89.7031c25.2617 23.3896 57.4824 36.0215 91.5732 36.0215
c42.3369 0 82.1006 -19.5898 108.649 -53.6816c1.28613 -1.28613 2.51465 -2.51465 3.15723 -3.80078c1.28711 0.584961 3.1582 1.22852 4.44434 1.87109c11.3447 5.08789 22.7471 7.60156 34.0918 7.60156c32.8633 0 59.3535 -20.876 69.4697 -54.3242
c0.643555 -1.28613 0.643555 -2.51465 1.28613 -3.80078h3.80078c43.5654 -1.22852 77.0723 -31.5771 82.1016 -75.1426zM443.849 80.2217c28.4199 6.95996 48.0088 35.3789 45.376 63.6807c-3.74316 32.2207 -27.1338 53.6807 -58.7109 54.3242
c-17.6602 0 -22.1045 3.80078 -27.1328 20.2324c-7.60254 23.3906 -25.2627 37.8926 -47.3662 37.8926c-8.18652 0 -16.4316 -1.87109 -24.6182 -5.67188c-6.95898 -3.15723 -10.7607 -5.02832 -15.7891 -5.02832c-8.8291 0 -13.918 6.31543 -19.5898 13.917
c-22.1035 28.4199 -54.9092 44.8516 -90.2871 44.8516c-27.7764 0 -54.9688 -10.1162 -75.7861 -29.7061c-22.1035 -20.1738 -34.0918 -44.792 -36.6055 -74.498v-3.80078c0 -5.67188 0 -12.6318 -5.0293 -18.3037c-5.67188 -5.67188 -12.6309 -6.31445 -18.3027 -6.31445
h-3.15723c-13.918 -1.92969 -23.9756 -6.95898 -31.5781 -16.4326c-12.6299 -15.7881 -15.1445 -31.5771 -6.95801 -49.2373c8.1875 -18.3027 22.6895 -27.7764 42.9219 -27.7764h76.4297h103.562h77.7158h100.403c5.0293 0.584961 10.0586 0.584961 14.5029 1.87109z" />
    <glyph glyph-name="uniF12C" unicode="&#xf12c;" 
d="M445.285 302.79c0 -0.632812 0 -1.89648 -0.0585938 -2.4707v-331.45c0 -17.9854 -14.8828 -32.8682 -32.8691 -32.8682h-312.773c-17.9863 0 -32.8691 14.8828 -32.8691 32.8682v446.262c0 17.9863 14.8828 32.8691 32.8691 32.8691h197.389h1.83789v0
c1.20703 0 1.83887 -0.631836 2.4707 0c0 -0.631836 0.632812 -0.631836 0.632812 -0.631836c1.20605 -0.574219 1.83789 -1.20703 2.4707 -1.83887v0v0v0l137.165 -136.533v0c0.574219 -0.632812 1.20605 -1.83887 1.83789 -2.4707
c0.632812 0 0.632812 -0.632812 0.632812 -0.632812c0.631836 -1.26465 1.26465 -1.83789 1.26465 -3.10254v0zM406.21 312.099l-98.0332 97.4004v-97.4004h98.0332zM422.299 -31.1309h-0.631836v320.303h-125.386c-6.20605 0 -11.1475 4.94141 -11.1475 11.1475v124.753
h-185.55c-5.57422 0 -9.94141 -4.36719 -9.94141 -9.94141v-446.262c0 -5.57422 4.36719 -9.94141 9.94141 -9.94141h312.773c5.5752 0 9.94141 4.36719 9.94141 9.94141zM369.548 88.6807c0 -6.20605 -4.94141 -11.1484 -11.1475 -11.1484h-206.639
c-6.20605 0 -11.1475 4.94141 -11.1475 11.1484s4.94141 11.1475 11.1475 11.1475h206.639c6.20605 0.632812 11.1475 -4.94141 11.1475 -11.1475zM369.548 19.7822c0 -6.20605 -4.94141 -11.1484 -11.1475 -11.1484h-206.639c-6.20605 0 -11.1475 4.94238 -11.1475 11.1484
s4.94141 11.1475 11.1475 11.1475h206.639c6.20605 0.631836 11.1475 -4.30957 11.1475 -11.1475zM369.548 156.947c0 -6.20605 -4.94141 -11.1475 -11.1475 -11.1475h-206.639c-6.20605 0 -11.1475 4.94141 -11.1475 11.1475s4.94141 11.1475 11.1475 11.1475h206.639
c6.20605 0 11.1475 -4.94141 11.1475 -11.1475zM151.762 236.361h206.639c6.20605 0 11.1475 -4.94141 11.1475 -11.1475s-4.94141 -11.1475 -11.1475 -11.1475h-206.639c-6.20605 0 -11.1475 4.94141 -11.1475 11.1475c-0.69043 5.57422 4.30859 11.1475 11.1475 11.1475z
M139.924 360.482c0 6.20703 4.94141 11.1484 11.1475 11.1484h71.3691c6.20605 0 11.1475 -4.94141 11.1475 -11.1484c0 -6.20508 -4.94141 -11.1475 -11.1475 -11.1475h-24.1914v-48.3838c0 -6.20605 -4.94141 -11.1475 -11.1475 -11.1475
s-11.1484 4.94141 -11.1484 11.1475v47.752h-24.1914c-6.83887 0 -11.8379 5.57422 -11.8379 11.7793z" />
    <glyph glyph-name="uniF15D" unicode="&#xf15d;" 
d="M256 448c141.402 0 256 -114.598 256 -256s-114.598 -256 -256 -256s-256 114.598 -256 256s114.598 256 256 256zM256 -39.1816c127.317 0 231.182 103.864 231.182 231.182s-103.182 231.182 -231.182 231.182s-231.182 -103.864 -231.182 -231.182
s103.182 -231.182 231.182 -231.182zM356.514 216.818c4.71582 -4.71582 4.71582 -12.7188 0 -17.4355c-2.66699 -2.66699 -5.33594 -3.34961 -8.68555 -3.34961c-3.35059 0 -6.01953 1.36426 -8.68652 3.34961l-71.1045 71.042v-196.312
c0 -6.70117 -5.33594 -12.0381 -12.0371 -12.0381s-12.0371 5.33691 -12.0371 12.0381v196.312l-70.4219 -70.3594c-4.71484 -4.71484 -12.7188 -4.71484 -17.4355 0c-4.71582 4.71582 -4.71484 12.7188 0 17.4355l91.1455 91.083
c0.682617 0.682617 1.36523 1.36523 1.98633 1.36523l0.682617 0.682617c0.681641 0 0.681641 0.682617 1.36426 0.682617s0.682617 0 1.36523 0.682617h1.36523h4.71582h1.36523s0.682617 0 1.36523 -0.682617c0.682617 0 0.682617 -0.682617 1.36523 -0.682617
c0 0 0.682617 0 0.682617 -0.682617c0.682617 -0.682617 1.36426 -0.682617 1.98535 -1.36523z" />
    <glyph glyph-name="uniF157" unicode="&#xf157;" 
d="M256 -64c-140.549 0 -255.69 115.141 -255.69 256.31s114.46 255.69 255.69 255.69s255.69 -114.459 255.69 -255.69c0 -141.23 -114.521 -256.31 -255.69 -256.31zM256 423.273c-127.164 0 -230.902 -103.738 -230.902 -230.901
c0 -127.164 103.738 -230.902 230.902 -230.902s230.902 103.738 230.902 230.902c0 127.163 -103.119 230.901 -230.902 230.901zM322.929 96.6279h-133.237c-14.749 0 -26.7715 12.0225 -26.7715 26.7715v133.174c0 14.749 12.0225 26.7715 26.7715 26.7715h133.174
c14.749 0 26.7725 -12.0225 26.7725 -26.7715v-133.174c0.0615234 -14.6875 -12.0225 -26.7715 -26.709 -26.7715zM189.691 258.618c-1.36328 0 -1.9834 -0.681641 -1.9834 -1.9834v-133.174c0 -1.36328 0.681641 -1.9834 1.9834 -1.9834h133.174
c1.36426 0 1.98438 0.681641 1.98438 1.9834v133.112c0 1.36328 -0.682617 1.9834 -1.98438 1.9834h-133.174v0.0615234z" />
    <glyph glyph-name="uniF142" unicode="&#xf142;" 
d="M419.438 283.607c1.86523 -3.14844 39.6523 -71.7812 0.641602 -153.01c-1.86621 -4.43164 -6.29785 -6.29785 -10.7305 -6.29785c-1.86523 0 -3.14844 0.641602 -5.01465 1.28223c-5.65625 2.50684 -8.16406 10.0879 -5.65625 15.7441
c33.9951 69.916 1.86523 129.103 0.641602 131.61c-3.14844 5.65625 -1.28223 12.5957 4.43164 15.7441c5.65625 2.50781 12.5371 0.641602 15.6865 -5.07324zM479.907 343.436c2.50781 -5.01367 70.5586 -127.819 0.583984 -272.665
c-2.56543 -3.79102 -6.29785 -6.29785 -10.7295 -6.29785c-1.86621 0 -3.14941 0.640625 -5.01562 1.28223c-6.29688 3.14844 -8.16309 10.0879 -5.65527 15.7441c65.4844 134.117 1.2832 249.342 0.641602 250.625c-3.14941 5.65527 -1.22461 12.5947 4.43066 15.7441
c5.65625 3.14844 12.5957 1.22363 15.7441 -4.43262zM345.79 373.7v-338.792v-0.641602c-0.641602 -11.9541 -8.80469 -17.0273 -16.3857 -17.0273c-5.01562 0 -10.0879 2.50684 -16.3857 6.93945l-97.6143 78.0791h-38.4277v-74.9307
c0 -21.4004 -17.0273 -38.4277 -38.4277 -38.4277h-33.9951c-21.4004 0 -38.4277 17.0273 -38.4277 38.4277v74.9307h-28.3398c-20.7588 0 -37.7861 17.0273 -37.7861 37.7861v136.684c0 20.7588 17.0273 37.7852 37.7861 37.7852h178.201l94.4648 76.2139
c0.641602 0.641602 1.86621 1.2832 2.50781 1.86719c1.28223 0.641602 6.93945 2.50684 12.5947 2.50684c12.0137 0 20.2354 -8.80469 20.2354 -21.4004zM37.2031 125.583h40.293h87.5264h42.8018v165.605h-170.621c-7.58105 0 -14.4619 -6.29688 -14.4619 -14.4609
v-136.684c0.583984 -8.16309 6.88184 -14.4609 14.4619 -14.4609zM153.71 102.258h-64.2598v-74.9307c0 -8.16406 6.93945 -15.1025 15.1025 -15.1025h33.9951c8.16406 0 15.1025 6.93945 15.1025 15.1025v74.9307h0.0595703zM322.465 370.552l-91.3164 -73.0654v-177.618
l91.3164 -73.0645v323.748z" />
    <glyph glyph-name="uniF11C" unicode="&#xf11c;" 
d="M256 447.969c141.34 0 256 -114.536 256 -255.938c0 -141.402 -114.598 -256 -256 -256s-256 114.536 -256 255.938c0 141.402 114.598 256 256 256zM256 -39.8955c127.317 0 231.182 103.864 231.182 231.182c0 127.318 -103.864 231.183 -231.182 231.183
s-231.182 -103.864 -231.182 -231.183c0 -127.317 103.864 -231.182 231.182 -231.182zM215.112 289.132c12.7197 0 22.7705 -10.0518 22.7695 -22.7705v-150.088c0 -12.7188 -10.0508 -22.7705 -22.7695 -22.7705h-40.2061c-12.7188 0 -22.7705 10.0518 -22.7705 22.7705
v150.088c0 12.7188 10.0518 22.7705 22.7705 22.7705h40.2061zM213.065 118.941v145.435h-35.4902v-145.435h35.4902zM336.411 289.132c12.7197 0 22.7715 -10.0518 22.7705 -22.7705v-150.088c0 -12.7188 -10.0518 -22.7705 -22.7705 -22.7705h-40.2061
c-12.7188 0 -22.7695 10.0518 -22.7695 22.7705v150.088c0 12.7188 10.0508 22.7705 22.7695 22.7705h40.2061zM334.363 118.941v145.435h-35.4902v-145.435h35.4902z" />
    <glyph glyph-name="uniF156" unicode="&#xf156;" 
d="M490.086 430.414c12.1328 0 21.3799 -9.83398 21.9131 -21.9678v-49.0674c0 -12.0801 -9.78125 -21.915 -21.9141 -21.915h-3.47461v-36.3457v-2.35156v-317.494c0 -14.9658 -12.667 -27.6865 -27.6865 -27.6865h-147.203h-109.68h-148.378
c-14.9658 0 -27.6865 12.667 -27.6865 27.6865v300.177v0v56.0146h-4.06152c-12.0811 0 -21.915 9.78223 -21.915 21.915v49.1211c0 12.0801 9.78125 21.9141 21.915 21.9141h468.171zM191.085 -25.0342h0.000976562v74.4561h-143.729v-68.0957
c0 -3.47461 2.88672 -6.36035 6.36035 -6.36035h137.367zM300.765 -25.0342h-0.641602v193.383c0 0.53418 -0.535156 1.70996 -1.71094 1.70996h-84.291c-0.53418 0 -1.70996 -0.53418 -1.70996 -1.70996v-193.383h88.3535zM464.697 -18.7275h0.533203v61.2002h-143.14
v-67.5605h136.246c3.47363 0 6.36035 2.88672 6.36035 6.36035zM464.697 63.8525l0.00390625 -0.0537109h-1.38965v178.364v0c-1.71094 -1.17676 -3.47461 -1.71094 -5.18555 -2.88672c-0.586914 0 -0.586914 -0.587891 -1.1748 -0.587891
c-1.71094 -1.12305 -3.47461 -1.71094 -5.18555 -2.29883h-0.587891c-2.29883 -1.12207 -4.0625 -1.12207 -6.36035 -1.70996h-1.70996c-1.76367 -0.587891 -4.0625 -0.587891 -6.36133 -0.587891c-1.71094 0 -3.47461 0.587891 -5.18457 0.587891
c-12.667 1.12207 -23.6787 7.48242 -31.1621 16.7295c-7.48242 -9.24609 -18.4404 -15.5537 -31.1611 -16.7295c-1.71094 -0.587891 -3.47461 -0.587891 -5.18457 -0.587891c-1.71191 0 -3.47559 0.587891 -5.18555 0.587891
c-12.667 1.12207 -23.6777 7.48242 -31.1611 16.7295c-7.4834 -9.24609 -18.4414 -15.5537 -31.1621 -16.7295c-1.71094 -0.587891 -3.47363 -0.587891 -5.18457 -0.587891s-3.47461 0.587891 -5.18555 0.587891c-12.667 1.12207 -23.6777 7.48242 -31.1611 16.7295
c-7.4834 -9.24609 -18.4404 -15.5537 -31.1621 -16.7295c-1.71094 -0.587891 -3.47461 -0.587891 -5.18457 -0.587891c-1.71094 0 -3.47461 0.587891 -5.18457 0.587891c-12.668 1.12207 -23.6787 7.48242 -31.1621 16.7295
c-7.4834 -9.24609 -18.4404 -15.5537 -31.1611 -16.7295c-1.71191 -0.587891 -3.47461 -0.587891 -5.18555 -0.587891s-3.47461 0.587891 -5.18457 0.587891c-12.668 1.12207 -23.6787 7.48242 -31.1621 16.7295c-7.4834 -9.24609 -18.4404 -15.5537 -31.1611 -16.7295
c-1.71094 -0.587891 -3.47461 -0.587891 -5.18555 -0.587891c-2.29785 0 -4.06152 0.587891 -6.36035 0.587891h-1.70996c-1.71094 0 -3.47461 0.586914 -5.18555 1.17578h-0.587891c-2.29785 0.587891 -4.06152 1.70996 -5.77246 2.29785
c0 0 -0.586914 0.587891 -1.1748 0.587891c-1.71094 0.588867 -3.42188 1.12305 -4.59766 2.29883c0 0.587891 -0.587891 0.587891 -0.587891 0.587891v-170.88h143.781v97.6006c0 12.7217 10.3701 23.0908 23.0908 23.0908h84.8262
c12.7207 0 23.0898 -10.3701 23.0898 -23.0908v-104.496h142.605zM47.3037 281.449c0 -10.958 6.36035 -20.2051 16.0879 -23.6787c2.88672 -1.70996 6.36133 -2.29883 9.83496 -2.29883c3.47559 0 6.94922 1.12305 9.83594 2.29883
c9.24707 4.0625 15.6074 13.3096 15.6074 23.6787v55.4277h-51.3662v-55.4277zM120.049 281.449c0 -10.958 6.36133 -20.2051 16.0879 -23.6787c2.88672 -1.70996 6.36035 -2.29883 9.83496 -2.29883c3.47559 0 6.94922 1.12305 9.83594 2.29883
c9.24707 4.0625 15.6074 13.3096 15.6074 23.6787v55.4277h-51.3662v-55.4277zM192.795 281.449c0 -10.958 6.94824 -20.2051 16.0889 -23.6787c2.88672 -1.70996 6.36133 -2.29883 9.83496 -2.29883s6.94824 1.12305 9.83496 2.29883
c9.24707 4.0625 15.6074 13.3096 15.6074 23.6787v55.4277h-51.3662v-55.4277zM266.129 281.449c0 -10.958 6.30664 -20.2051 16.0879 -23.6787c2.88672 -1.70996 6.36035 -2.29883 9.83496 -2.29883c3.47559 0 6.94922 1.12305 9.83594 2.29883
c9.24707 4.0625 15.6074 13.3096 15.6074 23.6787v55.4277h-51.3662v-55.4277zM338.821 281.449c0 -10.958 6.94824 -20.2051 16.0889 -23.6787c2.88672 -1.70996 6.36133 -2.29883 9.83496 -2.29883s6.94824 1.12305 9.83496 2.29883
c9.24707 4.0625 15.6074 13.3096 15.6074 23.6787v55.4277h-51.3662v-55.4277zM412.154 281.449c0 -10.958 6.36133 -20.2051 16.0889 -23.6787c2.88672 -1.70996 6.36133 -2.29883 9.83496 -2.29883c3.47461 0 6.94824 1.12305 9.83496 2.29883
c9.24707 4.0625 15.6074 13.3096 15.6074 23.6787v25.9766v29.4512h-51.3662v-55.4277zM490.086 359.38v49.0664l-467.583 0.587891l-0.587891 -49.6543h468.171v0z" />
    <glyph glyph-name="uniF11B" unicode="&#xf11b;" 
d="M256 448c141.402 0 256 -114.598 256 -256s-114.598 -256 -256 -256s-256 114.598 -256 256s114.598 256 256 256zM256 -39.1816c127.317 0 231.182 103.864 231.182 231.182s-103.864 231.182 -231.182 231.182s-231.182 -103.864 -231.182 -231.182
s103.864 -231.182 231.182 -231.182zM355.831 183.934c4.71582 -4.71484 4.71582 -12.7188 0 -17.4355l-91.1445 -91.7656c-0.682617 -0.682617 -1.36523 -1.36523 -1.98633 -1.36523l-0.682617 -0.682617c-0.682617 0 -0.682617 -0.682617 -1.36523 -0.682617
s-0.682617 0 -1.36523 -0.682617h-1.36523h-2.66699h-2.66797h-1.36523s-0.682617 0 -1.36523 0.682617c-0.682617 0 -0.682617 0.682617 -1.36523 0.682617c0 0 -0.682617 0 -0.682617 0.682617c-0.681641 0.682617 -1.36426 0.682617 -1.98535 1.36523l-90.3369 92.4492
c-4.71582 4.71582 -4.71582 12.7188 0 17.4355c4.71484 4.71582 12.7188 4.71484 17.4346 0l71.043 -71.042v196.373c0 6.70117 5.33594 12.0371 12.0371 12.0371s12.0371 -5.33594 12.0371 -12.0371v-196.312l69.7393 69.6768
c5.33496 5.33691 13.4004 5.33691 18.0537 0.621094z" />
    <glyph glyph-name="uniF15B" unicode="&#xf15b;" 
d="M467.727 271.818c24.6475 0 44.3301 -19.6836 44.2725 -43.7598v-160.207c0 -24.0195 -19.7402 -43.7598 -43.7598 -43.7598h-25.9023l-32.6348 -43.7607c-2.45312 -2.50977 -5.5332 -4.33496 -9.24316 -4.33496c-3.70898 0 -7.41699 1.25488 -9.24219 4.33496
l-32.6348 43.7607h-156.499c-24.0186 0 -43.7598 19.7393 -43.7598 43.7598v92.4268h-4.90625l-32.6348 -43.7598c-2.45312 -2.50977 -5.5332 -4.33594 -9.24219 -4.33594s-7.41797 1.25488 -9.24316 4.33594l-32.6348 43.7598h-25.9023
c-24.0186 0 -43.7598 19.7402 -43.7598 43.7598v160.207c0 24.0195 19.7412 43.7598 43.7598 43.7598h266.213c24.0186 0 43.7598 -19.7402 43.7598 -43.7598v-92.4268h113.994zM147.312 183.1v0h22.1377h139.324c11.6953 0 20.9385 9.24219 20.9385 20.9385v56.084v104.123
c0 11.6963 -9.24219 20.9395 -20.9385 20.9395h-266.213c-11.6963 0 -20.9385 -9.24316 -20.9385 -20.9395v-160.206c0 -11.6963 9.24219 -20.9395 20.9385 -20.9395h32.0645c3.70898 0 7.41699 -1.25488 9.24219 -4.33496l27.1006 -35.7158l27.1006 35.7158
c2.45312 2.50977 5.53516 4.33496 9.24316 4.33496zM489.292 67.8516h-0.0566406v159.579c0 11.6963 -9.24316 20.9395 -20.9395 20.9395h-113.993v-44.3877c0 -5.53418 -0.626953 -10.4414 -2.45312 -14.7773h67.7803c6.16211 0 11.0684 -4.90625 11.0684 -11.0684
s-4.90723 -11.0684 -11.0684 -11.0684h-86.2646c-6.7334 -4.33691 -14.7773 -6.79004 -23.3926 -6.79004h-128.771v-92.4268c0 -11.6963 9.24316 -20.9395 20.9395 -20.9395h161.462c3.70898 0 7.41699 -1.25488 9.24219 -4.33594l27.1006 -35.7158l27.1006 35.7158
c2.45312 2.51074 5.53516 4.33594 9.24316 4.33594h32.0635c11.6953 0 20.9385 9.24316 20.9385 20.9395zM430.128 114.692c0 -6.16211 -4.90625 -11.0693 -11.0684 -11.0693h-167.624c-6.16113 0 -11.0684 4.90625 -11.0684 11.0693
c0 6.16211 4.90625 11.0684 11.0684 11.0684h167.624c6.10449 0.0566406 11.0684 -4.90625 11.0684 -11.0684zM259.423 239.812h-166.996c-6.16113 0 -11.0684 4.90625 -11.0684 11.0684s4.90625 11.0684 11.0684 11.0684h166.996
c6.16113 0 11.0684 -4.90625 11.0684 -11.0684c0.62793 -6.16211 -4.90625 -11.0684 -11.0684 -11.0684zM81.3584 314.95c0 6.16211 4.90625 11.0693 11.0684 11.0693h100.414c6.16211 0 11.0693 -4.90625 11.0693 -11.0693c0 -6.16113 -4.90625 -11.0684 -11.0693 -11.0684
h-100.414c-6.16211 0.000976562 -11.0684 4.90723 -11.0684 11.0684z" />
    <glyph glyph-name="uniF138" unicode="&#xf138;" 
d="M190.553 371.645c21.8154 0 39.9951 -18.1797 39.9277 -39.9961v-151.297c0 -21.8154 -18.1797 -39.9961 -39.9961 -39.9961h-31.9824l57.4336 -96.0156c5.8584 -10.167 3.63672 -18.1797 1.48145 -21.8154c-3.63477 -6.53125 -10.9072 -10.168 -19.6602 -10.168
h-0.740234h-89.4189c-18.9209 0 -29.0869 11.6484 -32.7236 18.1797l-68.3428 130.154c-0.672852 0.741211 -1.41406 2.15527 -2.1543 3.63672l-0.741211 0.740234c-0.740234 1.48145 -1.48047 2.89453 -1.48047 4.37598c-1.41504 4.37793 -2.15527 8.0127 -2.15527 11.6494
v101.807c0 7.27246 2.15527 19.6621 13.0625 30.5693l45.1133 45.1133c4.37598 4.30957 16.0254 13.0625 33.4639 13.0625h98.9131zM203.615 181.093h0.0664062v150.557c0 7.27148 -5.79102 13.0625 -13.0625 13.0625h-98.9102
c-8.0127 0 -13.0625 -4.30957 -14.5439 -5.79102l-45.1133 -45.1133c-4.37695 -4.37695 -5.11719 -8.75391 -5.11719 -11.6484v-101c0 -1.48145 0 -2.89453 0.740234 -4.37598v-0.740234v0c0 -0.741211 0.740234 -0.741211 0.740234 -1.48145l69.0156 -130.827
c0 -0.741211 2.22168 -3.63672 8.75391 -3.63672h78.5098l-63.9658 107.598c-2.15527 4.37695 -2.15527 9.42676 0 13.8037c2.22266 3.63574 6.53125 6.53125 11.6484 6.53125h58.1758c7.27148 0 13.0625 5.79102 13.0625 13.0625zM472.004 371.645
c21.8154 0 39.9951 -18.1797 39.9941 -39.9961v-150.557c0 -21.8154 -18.1797 -39.9961 -39.9961 -39.9961h-34.2041l59.5898 -96.0166c5.85742 -10.167 3.63574 -18.1797 1.48145 -21.8154c-3.63574 -6.53125 -10.9082 -10.168 -19.6611 -10.168h-0.740234h-89.4189
c-18.9199 0 -29.0869 11.6494 -32.7227 18.1807l-68.3438 130.154c-0.672852 0.741211 -1.41406 2.15527 -2.1543 3.63672l-0.740234 0.740234c-0.741211 0.741211 -1.48145 2.1543 -1.48145 3.63574c-1.41504 4.37793 -2.15527 8.0127 -2.15527 11.6494v101.807
c0 7.27246 2.15527 19.6621 13.0625 30.5693l45.1133 45.1133c4.37695 4.30957 16.0254 13.0625 33.4648 13.0625h98.9121zM485.066 181.093h0.000976562v150.557c0 7.27148 -5.79102 13.0625 -13.0625 13.0625h-98.9121c-8.0127 0 -13.0625 -4.30957 -14.5439 -5.79102
l-45.1123 -45.1133c-4.37793 -4.37695 -5.11816 -8.75391 -5.11816 -11.6484v-100.932c0 -1.48145 0 -2.89551 0.740234 -4.37695v-0.740234c0 -0.741211 0.740234 -0.741211 0.740234 -1.48145l69.084 -130.895c0 -0.741211 2.22168 -3.63672 8.75293 -3.63672h79.251
l-63.9668 107.598c-2.1543 4.37695 -2.1543 9.42676 0 13.8037c2.22266 3.63574 6.53125 6.53125 11.6494 6.53125h57.4346c7.27246 0 13.0625 5.79102 13.0625 13.0625z" />
    <glyph glyph-name="uniF119" unicode="&#xf119;" 
d="M432.933 370.512h0.688477v-342.847v-0.631836v-60.0391c0 -17.335 -14.2344 -30.9951 -30.9951 -30.9951h-292.621c-17.335 0 -30.9951 14.2344 -30.9951 30.9951v58.2607c-0.631836 0.630859 -0.631836 1.20508 -0.631836 2.46777v342.788
c0 0.631836 0.631836 1.83691 0.631836 2.46875v44.0244c0 17.335 14.2344 30.9961 30.9951 30.9961h291.933c17.334 0 30.9951 -14.2344 30.9951 -30.9961v-46.4922v0zM101.912 359.318v-319.886h308.118v319.886h-308.118zM110.005 425.04
c-4.3623 0 -8.09277 -3.09961 -8.09277 -8.03613v-35.3574h308.75v35.3574c0 4.30469 -3.67383 8.03613 -8.03613 8.03613h-292.621zM402.568 -41.1553c4.36328 0 7.46191 3.73145 7.51953 8.03613v49.5928h-308.118v-49.5928c0 -4.30469 3.67285 -8.03613 8.03516 -8.03613
h292.563zM267.451 -12.6279c0 -6.83105 -5.56836 -13.0303 -13.0293 -13.0303c-6.83105 0 -13.0303 5.56836 -13.0303 13.0303c0 6.83008 5.56836 13.0293 13.0303 13.0293c7.46094 0 13.0293 -6.19922 13.0293 -13.0293z" />
    <glyph glyph-name="uniF127" unicode="&#xf127;" 
d="M444.84 301.869c0 -0.572266 0 -1.20312 -0.0576172 -2.46484v-330.613c0 -17.9434 -14.8477 -32.792 -32.792 -32.792h-312.038c-17.9434 0 -32.792 14.8477 -32.792 32.792v446.417c0 17.9434 14.8477 32.791 32.792 32.791h196.924h1.83398v0
c0.630859 -0.630859 1.83496 -0.630859 2.46484 -1.26074c0 -0.630859 0.630859 -0.630859 0.630859 -0.630859c1.2041 -0.572266 1.83496 -1.2041 2.46484 -1.83398v0v0v0l136.843 -136.213v0c0.573242 -0.630859 1.2041 -1.83496 1.83496 -2.46484
c0.629883 0 0.629883 -0.630859 0.629883 -0.630859c0.630859 -1.26074 1.26172 -1.83398 1.26172 -3.0957v0zM405.799 311.157l-97.8018 97.2285v-97.2285h97.8018zM421.909 -31.208v0h-0.630859v320.122h-125.091c-6.19141 0 -11.1211 4.92969 -11.1211 11.1211v124.46
h-185.113c-5.56152 0 -9.91797 -4.35742 -9.91797 -9.91797v-445.785c0 -5.56152 4.35645 -9.91797 9.91797 -9.91797h312.038c5.56055 0 9.91797 4.35645 9.91797 9.91797zM369.281 88.2637c0 -6.19043 -4.93066 -11.1211 -11.1221 -11.1211h-206.21
c-6.19141 0 -11.1221 4.93066 -11.1221 11.1211c0 6.19141 4.93066 11.1221 11.1221 11.1221h206.153c6.24805 0.6875 11.1787 -4.2998 11.1787 -11.1221zM369.281 20.1582c0 -6.19141 -4.93066 -11.1221 -11.1221 -11.1221h-206.21
c-6.19141 0 -11.1221 4.93066 -11.1221 11.1221c0 6.19043 4.93066 11.1211 11.1221 11.1211h206.153c6.24805 0.0576172 11.1787 -4.92969 11.1787 -11.1211zM369.281 156.37c0 -6.19141 -4.93066 -11.1211 -11.1221 -11.1211h-206.21
c-6.19141 0 -11.1221 4.92969 -11.1221 11.1211s4.93066 11.1221 11.1221 11.1221h206.153c6.24805 0.0576172 11.1787 -4.93066 11.1787 -11.1221zM151.949 235.656h206.153c6.19043 0 11.1211 -4.93066 11.1211 -11.1221s-4.93066 -11.1221 -11.1211 -11.1221h-206.153
c-6.19141 0 -11.1221 4.93066 -11.1221 11.1221c-0.630859 5.56055 4.92969 11.1221 11.1221 11.1221zM140.196 292.01c0 6.19043 4.93066 11.1211 11.1221 11.1211h71.2021c6.19043 0 11.1211 -4.93066 11.1211 -11.1211c0 -6.19141 -4.93066 -11.1221 -11.1211 -11.1221
h-70.5713c-6.19238 -0.688477 -11.7529 4.2998 -11.7529 11.1221zM140.196 359.485c0 6.19141 4.93066 11.1211 11.1221 11.1211h71.2021c6.19043 0 11.1211 -4.92969 11.1211 -11.1211s-4.93066 -11.1221 -11.1211 -11.1221h-70.5713
c-6.19238 -0.0576172 -11.7529 4.92969 -11.7529 11.1221z" />
    <glyph glyph-name="uniF136" unicode="&#xf136;" 
d="M510.541 9.69727c1.82422 -3.70605 1.82422 -8.04004 0.626953 -11.6895c-1.88184 -3.0791 -5.53125 -5.53125 -9.86523 -5.53125h-489.599c-4.33398 0 -8.04102 1.8252 -9.86523 5.53125c-2.45215 3.70703 -2.45215 7.9834 0 11.6895l33.8145 54.7988l0.626953 0.626953
c-1.82422 3.64941 -2.45215 7.35645 -2.45215 11.0625v286.37c0 16.0234 12.9443 28.9678 28.9688 28.9678h386.729c16.0234 0 28.9678 -12.9443 28.9678 -28.9678v-286.369c0 -4.27637 -1.19824 -7.98242 -2.45215 -11.0625l0.62793 -0.626953zM56.6377 76.1855
c0 -3.70605 2.50977 -6.1582 6.15918 -6.1582h386.729c3.70605 0 6.1582 3.0791 6.1582 6.1582v20.9277h-399.047v-20.9277zM57.2656 119.923l397.85 0.000976562v200.15h-397.85v-200.151zM62.7969 368.714c-3.64941 0 -6.15918 -3.0791 -6.15918 -6.1582v-19.7305h399.047
v19.7305c0 3.70605 -3.07812 6.1582 -6.1582 6.1582h-386.729zM31.4346 15.2285h448.314l-19.7295 32.0469h-11.0625h-386.73h-11.0625z" />
    <glyph glyph-name="uniF101" unicode="&#xf101;" 
d="M512 191.97c0 -77.0391 -33.9238 -145.612 -86.8955 -193.263c-1.26953 -1.99512 -3.26465 -3.92969 -5.86523 -4.59473c-44.3848 -35.9199 -101.227 -58.1123 -162.604 -58.1123c-62.707 0 -119.549 22.1924 -163.935 59.4424
c-1.26953 0.604492 -1.93457 1.26953 -2.59961 1.93457c-54.8467 46.9854 -90.1006 116.889 -90.1006 194.593c0 141.077 114.893 256.03 255.97 256.03s256.03 -114.953 256.03 -256.03zM23.5225 191.97c0 -62.707 25.458 -120.154 66.6377 -161.334
c5.86621 30.7178 25.459 82.9648 86.1104 116.888c-13.0625 17.6572 -21.5273 39.1846 -21.5273 62.708c0 56.1768 45.7148 101.892 101.892 101.892s101.893 -45.7148 101.893 -101.892c0 -23.5225 -7.80078 -45.7158 -21.5273 -62.708
c60.1074 -33.9229 79.6992 -86.1689 86.2295 -116.888c40.5156 41.8457 65.3076 98.627 65.3076 161.334c0 128.016 -104.492 232.508 -232.507 232.508c-128.016 0 -232.508 -104.492 -232.508 -232.508zM177.661 209.627c0 -43.1152 35.2539 -78.3691 78.3691 -78.3691
s78.3691 35.2539 78.3691 78.3691s-35.2539 78.3701 -78.3691 78.3701s-78.3691 -35.2549 -78.3691 -78.3701zM111.022 10.4385c39.8506 -32.0488 90.1621 -50.9756 145.733 -50.916c54.8467 0 105.762 19.5918 145.611 51.5811
c-1.99512 20.2578 -13.0615 82.9648 -82.9648 118.884c-17.6572 -13.7266 -39.8496 -22.1924 -63.3721 -22.1924s-45.0498 7.80078 -62.708 21.5273c-70.5684 -35.9189 -80.9688 -99.957 -82.2998 -118.884z" />
    </font>
</defs>
</svg>
